logo
Международный русскоязычный
торрент-трекер

SHOP-KorsaRDoublon

Поделиться с друзьями: 

Жажда (2013, драма, HDTV 1080i)

Сообщение Korsar » 09 янв 2017, 01:10

Жажда

#777
Страна: Россия
Жанр: драма
Год выпуска: 2013
Производство: «Всемирные Русские Студии»
Продолжительность: 01:35:19

Оригинальная аудиодорожка: русский
Cубтитры: нет
Режиссер: Дмитрий Тюрин
В ролях:
Михаил Грубов, Сергей Лавыгин, Роман Курцын, Никита Остриков, Алексей Гуськов, Галина Бокашевская,
Анна Банщикова, Светлана Смирнова-Марцинкевич, Георгий Соловьев, Андрей Попович
Описание:
Костя, талантливый художник, возвращается из Чечни с обожжённым лицом и стойкой обидой на жизнь. Он замыкается в себе, мало с кем общается и рисует мрачные портреты в духе Гойи. Однажды бесследно пропадает его фронтовой друг, который во время боевой операции спас ему жизнь. Костя вместе с двумя товарищами отправляется на его поиски. Так, ведомый обстоятельствами, он начинает выходить за пределы замкнутого круга и пытается увидеть мир под другим углом.
Возраст: 18+
Качество: HDTV (1080i)
Формат: TS
Видео кодек: AVC
Аудио кодек: MPEG Audio 2

Видео: AVC, 1920 х 1080 (16:9), 25,000 кадр/сек, 6 654 Кбит/сек, 0.128 bit/pixel
Аудио: MPEG Audio 2, 48000 Hz, 192 Kbps, 2 канала
General
ID : 1 (0x1)
Complete name : D:\Жажда HDTV (1080i)\Жажда HDTV (1080i).ts
Format : MPEG-TS
File size : 4.80 GiB
Duration : 1h 35mn
Overall bit rate mode : Variable
Overall bit rate : 7 204 Kbps

Video
ID : 67 (0x43)
Menu ID : 1 (0x1)
Format : AVC
Format/Info : Advanced Video Codec
Format profile : Main@L4
Format settings, CABAC : Yes
Format settings, ReFrames : 2 frames
Format settings, GOP : M=3, N=30
Codec ID : 27
Duration : 1h 35mn
Bit rate : 6 654 Kbps
Width : 1 920 pixels
Height : 1 080 pixels
Display aspect ratio : 16:9
Frame rate : 25.000 fps
Color space : YUV
Chroma subsampling : 4:2:0
Bit depth : 8 bits
Scan type : MBAFF
Scan type, store method : Interleaved fields
Scan order : Top Field First
Bits/(Pixel*Frame) : 0.128
Stream size : 4.43 GiB (92%)
Color range : Limited
Color primaries : BT.709
Transfer characteristics : BT.709
Matrix coefficients : BT.709

Audio
ID : 301 (0x12D)
Menu ID : 1 (0x1)
Format : MPEG Audio
Format version : Version 1
Format profile : Layer 2
Codec ID : 3
Duration : 1h 35mn
Bit rate mode : Constant
Bit rate : 192 Kbps
Channel(s) : 2 channels
Sampling rate : 48.0 KHz
Compression mode : Lossy
Delay relative to video : -80ms
Stream size : 131 MiB (3%)
Language : English


Аватара пользователя
Korsar
Помощник Администратора-Корсар
 
Месяцев на трекере: 6Месяцев на трекере: 6Месяцев на трекере: 6Месяцев на трекере: 6Месяцев на трекере: 6Месяцев на трекере: 6
 
Зарегистрирован: 15 авг 2016, 17:15
В кошельке: 21,717.00
Банк: 0.00
Откуда: CCCР
Флаги:
СССР-2

Награды: 3
За отличные раздачи (2) За развитие форума (1)
  • Торрент
Автор: Korsar Хэш: ---
Добавлен: 09 янв 2017, 01:10 Приватный: Нет (DHT включён)
Статус: Проверен
Размер: 4.8 ГБ (5 150 574 712 байт)
Изменил: Korsar (09 янв 2017, 01:11)
Скачали: 1 (Раздающих: 100%)
Причина:
---
Здоровье: 100%
Сидеров: 19 Личеров: 6
Скорость раздачи: 0 байт/сек Скорость скачивания: 0 байт/сек
Последний сидер: 4 дня 12 часов 30 минут 11 секунд назад Последний личер: 4 дня 12 часов 30 минут 11 секунд назад
Для скачивания торрента необходимо зарегистрироваться или войти на трекер.

Сообщение kwazar312 » 11 янв 2017, 14:38

Уважаемый korsar,большое спасибо за хороший фильм.
Аватара пользователя
kwazar312
Уважаемый Корсар
 
Месяцев на трекере: 6Месяцев на трекере: 6Месяцев на трекере: 6Месяцев на трекере: 6Месяцев на трекере: 6Месяцев на трекере: 6
 
Зарегистрирован: 08 авг 2016, 09:50
В кошельке: 2,354.00

Награды: 2
За отличные комментарии (1) Верный Сид (1)


Вернуться в Наше современное кино (HD Video)

Выключите ADBLOCK!
проверить сайт
cron