logo
Международный русскоязычный
торрент-трекер
Menu
Doublon
Поделиться с друзьями: 
Голосуй за Корсар и получи 500 дублонов
Рейтинг торрент трекеров - UpTracker.ru

Из вечности / Back from Eternity (1956, драма, WEB-DL 1080p)

Сообщение kisa1980 » 25 окт 2019, 17:34

Название: Из вечности
Оригинальное название: Back from Eternity
Год выпуска: 1956
Жанр: Драма
Режиссер: Джон Фэрроу
В ролях: Анита Экберг, Роберт Райан, Род Стайгер, Филлис Кирк, Кит Эндес, Джин Бэрри, Фред Кларк, Бьюла Бонди, Кэмерон Прад’Хомме, Джесси Уай, Аделе Мара, Джон Провост, Рико Аланис, Тол Эйвери, Джеймс Бёрк

О фильме: Экранизация по произведению Ричарда Кэрролла. В чудовищную бурю над тропическими джунглями терпит бедствие самолет, летевший над Южной Африкой. В авиакатастрофе погибли не все. Группа выживших - люди очень разные во всех отношениях. Вскоре они узнают, что окрестные земли населены жестокими каннибалами. Теперь помощи ждать неоткуда: чтобы уцелеть, им нужно добраться до цивилизации раньше, чем их заметят местные жители.



Выпущено: США, RKO Radio Pictures Inc.
Продолжительность: 01:36:58
Перевод: Профессиональный (многоголосый, закадровый) | Россия 1

Качество: WEB-DL 1080p
Контейнер: MKV
Видео: MPEG4 AVC Video, H264, 16:9, 1920x1080, 23.976 fps, 14,6 Mbps
Аудио 1: Russian (AC3, 2 ch, 192 kbps, 16 bits, 48.0 KHz) - MVO, Россия 1
Аудио 2: English (E-AC3, 2 ch, 224 kbps, 16 bits, 48.0 KHz) - Оригинал
Субтитры: Английские


General
Unique ID : 181530381740697476421601102632429136144 (0x88917AD43DC716BAAB6DC6B44171A910)
Complete name : J:\Back.from.Eternity.1956.WEB-DL.1080p-SbR.mkv
Format : Matroska
Format version : Version 4 / Version 2
File size : 10.4 GiB
Duration : 1 h 36 min
Overall bit rate mode : Variable
Overall bit rate : 15.3 Mb/s
Encoded date : UTC 2019-10-25 06:26:08
Writing application : mkvmerge v6.1.0 ('Old Devil') built on Mar 2 2013 14:32:37
Writing library : libebml v1.3.0 + libmatroska v1.4.0

Video
ID : 1
Format : AVC
Format/Info : Advanced Video Codec
Format profile : High@L4
Format settings : CABAC / 4 Ref Frames
Format settings, CABAC : Yes
Format settings, ReFrames : 4 frames
Codec ID : V_MPEG4/ISO/AVC
Duration : 1 h 36 min
Bit rate mode : Variable
Bit rate : 14.6 Mb/s
Maximum bit rate : 15.0 Mb/s
Width : 1 920 pixels
Height : 1 080 pixels
Display aspect ratio : 16:9
Frame rate mode : Constant
Frame rate : 23.976 (24000/1001) FPS
Color space : YUV
Chroma subsampling : 4:2:0
Bit depth : 8 bits
Scan type : Progressive
Bits/(Pixel*Frame) : 0.293
Stream size : 9.88 GiB (95%)
Writing library : x264 core 148 r2623 d5b2374
Encoding settings : cabac=1 / ref=4 / deblock=1:-1:-1 / analyse=0x3:0x133 / me=umh / subme=9 / psy=1 / psy_rd=1.00:0.15 / mixed_ref=1 / me_range=24 / chroma_me=1 / trellis=2 / 8x8dct=1 / cqm=0 / deadzone=21,11 / fast_pskip=1 / chroma_qp_offset=-3 / threads=34 / lookahead_threads=5 / sliced_threads=0 / nr=150 / decimate=1 / interlaced=0 / bluray_compat=0 / constrained_intra=0 / bframes=8 / b_pyramid=2 / b_adapt=2 / b_bias=0 / direct=3 / weightb=1 / open_gop=0 / weightp=2 / keyint=120 / keyint_min=61 / scenecut=0 / intra_refresh=0 / rc_lookahead=120 / rc=crf / mbtree=1 / crf=18.0 / qcomp=0.60 / qpmin=0 / qpmax=69 / qpstep=4 / vbv_maxrate=15000 / vbv_bufsize=31250 / crf_max=0.0 / nal_hrd=vbr / filler=0 / ip_ratio=1.40 / aq=3:1.00
Language : English
Default : Yes
Forced : No
Color range : Limited
Color primaries : BT.709
Transfer characteristics : BT.709
Matrix coefficients : BT.709

Audio #1
ID : 2
Format : AC-3
Format/Info : Audio Coding 3
Codec ID : A_AC3
Duration : 1 h 36 min
Bit rate mode : Constant
Bit rate : 192 kb/s
Channel(s) : 2 channels
Channel positions : Front: L R
Sampling rate : 48.0 kHz
Frame rate : 31.250 FPS (1536 SPF)
Bit depth : 16 bits
Compression mode : Lossy
Stream size : 133 MiB (1%)
Language : Russian
Service kind : Complete Main
Default : Yes
Forced : No

Audio #2
ID : 3
Format : E-AC-3
Format/Info : Enhanced Audio Coding 3
Codec ID : A_EAC3
Duration : 1 h 36 min
Bit rate mode : Constant
Bit rate : 224 kb/s
Channel(s) : 2 channels
Channel positions : Front: L R
Sampling rate : 48.0 kHz
Frame rate : 187.500 FPS (256 SPF)
Compression mode : Lossy
Stream size : 155 MiB (1%)
Language : English
Service kind : Complete Main
Default : No
Forced : No

Text #1
ID : 4
Format : UTF-8
Codec ID : S_TEXT/UTF8
Codec ID/Info : UTF-8 Plain Text
Language : English
Default : No
Forced : No

Text #2
ID : 5
Format : UTF-8
Codec ID : S_TEXT/UTF8
Codec ID/Info : UTF-8 Plain Text
Title : SDH
Language : English
Default : No
Forced : No
КУБКИ

СТАЖ

МЕДАЛИ
Награды:109

За активную помощь проекту (10) Лучший по количеству кубков (3) За отличные раздачи и качество (37) За подробное оформление раздач (6) За отличные комментарии (9) Почётный форумчанин (12) Верный Сид (28) За участие в конкурсах/играх (2)

Аватара пользователя
Тортуга
kisa1980
Главный помощник Администратора-Корсар
  • Торрент
Для скачивания торрента необходимо зарегистрироваться или войти на трекер.

Сообщение kwazar312 » 25 окт 2019, 20:18

Джон Фэрроу создал замечательное кино. Традиционно для Фэрроу, картина разделена на две стилистические части. Первая половина фильма связана с самолетом и полетом, а вторая происходит в джунглях. В отличие, от вышедших много позже фильмов Умберто Ленци и Руджеро Деодато, на первую роль тут выйдут вовсе не каннибалы, а обнаженные как нерв человеческие отношения.Как поведут себя люди, когда останутся перед выбором, что им самим нужно будет определить кто останется с каннибалами? Именно так ставит вопрос Фэрроу, создавая свой очередной шедевр.
Тот факт, что картину миновали крупные номинации награды ничего не означает. То, что серьезные киноработы часто остаются без призов, наверное уже аксиома. На мой взгляд, это один из лучших фильмов 1956 года.
Уважаемый kisa1980,спасибо за раздачу хорошего ретро-фильма.
:hi: :good:
КУБКИ

СТАЖ

МЕДАЛИ
Награды:133

За активную помощь проекту (13) Лучший по количеству кубков (40) За отличные раздачи и качество (3) За отличные комментарии (22) Почётный форумчанин (4) Верный Сид (45) За участие в конкурсах/играх (6)

Аватара пользователя
kwazar312
Заслуженный Корсар-Вип


Вернуться в Классика зарубежного кино (фильмы до 1980 года / HD Video)



Uptime по данным Ping-Admin.Ru - сервиса мониторинга доступности сайтов
Рейтинг@Mail.ru