logo
Международный русскоязычный
торрент-трекер
Menu
Поделиться с друзьями: 
Голосуй за Корсар и получи 500 дублонов
Рейтинг торрент трекеров - UpTracker.ru

Индия / Indien / India (2013, документальный, BDRip 1080p) | 3D-Video | halfOU

Сообщение kisa1980 » 09 июл 2019, 16:27

Название: Индия
Оригинальное название: Indien / India
Год выпуска: 2013
Выпущено: Германия, New KSM
Жанр: Документальный
Продолжительность: 00:52:29 + 00:51:55
Перевод: Профессиональный одноголосый
Режиссеры: Norbert Vander, Christian Journet
Продюсер: Benjamin Krause

Описание: Часть 1. Индия: По следу тигра. Насколько успешна Программа по защите животных в Индии? Мы хотим найти здесь, в национальном природном парке Канха в провинции Мадхья-Прадеш, географическом центре Индии, баланс между экологией и экономикой. Присоединяйтесь к нам в путешествии по мистической Индии, по местам, которые служили вдохновением для Редьярда Киплинга и его «Книги Джунглей».
Часть 2. Индия: Национальный парк Канха. Ни одна другая страна не содержит в себе так много этнических, религиозных и экономических контрастов, как Индия. Вызов сегодняшнего дня — это экономический рост любой ценой, быстрый прирост населения и экологический баланс. Внушительный список видов животных находится под угрозой исчезновения в Индии. Индийское правительство пытается справиться с этой проблемой с 1973 года. Было создано множество заповедников и реинтродуктивных станций.



Качество: BDRip 1080p
Контейнер: MKV
Формат 3D: Half OverUnder / Вертикальная анаморфная стереопара
Порядок ракурсов: левый ракурс первый
Видео: AVC / 1920х1080p / 23,976 fps / 18.0 & 15.9 Mbps
Аудио:
#1 - Русский / AC3 / 48 KHz / 5.1 ch / 640 Kbps (VO) (перемонтаж из моно в 5.1 - Ash61)
#2 - Английский / AC3 / 48 KHz / 5.1 ch / 640 Kbps (Original - BD 3D)
Субтитры: Отсутствуют

General
Unique ID : 249976741332487253047232246934323979582 (0xBC0FC4E73A588EB796C6FDA95B09E53E)
Complete name : J:India(2013)3D-hOU(Ash61)India.1.OnTheTrailOfTheTiger(2013)3D-hOU(Ash61).mkv
Format : Matroska
Format version : Version 2
File size : 7.20 GiB
Duration : 52mn 29s
Overall bit rate : 19.6 Mbps
Movie name : Индия: По следу тигра / India: On the Trail of the Tiger / Indien: Auf den Spuren des Tigers (2013) 3D
Encoded date : UTC 2019-07-08 19:04:29
Writing application : mkvmerge v5.8.0 ('No Sleep / Pillow') built on Sep 2 2012 15:37:04
Writing library : libebml v1.2.3 + libmatroska v1.3.0

Video
ID : 1
Format : AVC
Format/Info : Advanced Video Codec
Format profile : High@L4.1
Format settings, CABAC : Yes
Format settings, ReFrames : 4 frames
Codec ID : V_MPEG4/ISO/AVC
Duration : 52mn 29s
Bit rate : 18.0 Mbps
Width : 1 920 pixels
Height : 1 080 pixels
Display aspect ratio : 16:9
Frame rate mode : Constant
Frame rate : 23.976 (24000/1001) fps
Color space : YUV
Chroma subsampling : 4:2:0
Bit depth : 8 bits
Scan type : Progressive
Bits/(Pixel*Frame) : 0.361
Stream size : 6.58 GiB (91%)
Title : BDRip by Ash61
Writing library : x264 core 129 r2245 bc13772
Encoding settings : cabac=1 / ref=4 / deblock=1:-1:-1 / analyse=0x3:0x113 / me=umh / subme=10 / psy=1 / psy_rd=1.00:0.15 / mixed_ref=1 / me_range=32 / chroma_me=1 / trellis=2 / 8x8dct=1 / cqm=0 / deadzone=21,11 / fast_pskip=1 / chroma_qp_offset=-3 / threads=12 / lookahead_threads=2 / sliced_threads=0 / nr=0 / decimate=1 / interlaced=0 / bluray_compat=0 / constrained_intra=0 / bframes=11 / b_pyramid=2 / b_adapt=2 / b_bias=0 / direct=3 / weightb=1 / open_gop=0 / weightp=2 / keyint=250 / keyint_min=23 / scenecut=40 / intra_refresh=0 / rc_lookahead=60 / rc=crf / mbtree=1 / crf=18.0 / qcomp=0.70 / qpmin=10 / qpmax=69 / qpstep=4 / vbv_maxrate=40000 / vbv_bufsize=30000 / crf_max=0.0 / nal_hrd=none / frame-packing=4 / ip_ratio=1.40 / aq=1:0.70
Language : German
Default : Yes
Forced : No

Audio #1
ID : 2
Format : AC-3
Format/Info : Audio Coding 3
Mode extension : CM (complete main)
Format settings, Endianness : Big
Codec ID : A_AC3
Duration : 52mn 29s
Bit rate mode : Constant
Bit rate : 640 Kbps
Channel(s) : 6 channels
Channel positions : Front: L C R, Side: L R, LFE
Sampling rate : 48.0 KHz
Frame rate : 31.250 fps (1536 spf)
Compression mode : Lossy
Stream size : 240 MiB (3%)
Title : Профессиональный одноголосый (перемонтаж из моно в 5.1 - Ash61)
Language : Russian
Default : Yes
Forced : No

Audio #2
ID : 3
Format : AC-3
Format/Info : Audio Coding 3
Mode extension : CM (complete main)
Format settings, Endianness : Big
Codec ID : A_AC3
Duration : 52mn 29s
Bit rate mode : Constant
Bit rate : 640 Kbps
Channel(s) : 6 channels
Channel positions : Front: L C R, Side: L R, LFE
Sampling rate : 48.0 KHz
Frame rate : 31.250 fps (1536 spf)
Compression mode : Lossy
Stream size : 240 MiB (3%)
Title : BD 3D
Language : English
Default : No
Forced : No

















КУБКИ

СТАЖ

МЕДАЛИ
Награды:115

За активную помощь проекту (12) Лучший по количеству кубков (4) За отличные раздачи и качество (43) За подробное оформление раздач (10) За отличные комментарии (10) Почётный форумчанин (3) Верный Сид (30) За участие в конкурсах/играх (2)

Аватара пользователя
Тортуга
kisa1980
Главный помощник Администратора-Корсар
  • Торрент
Для скачивания торрента необходимо зарегистрироваться или войти на трекер.

Вернуться в Документальные (3D Video)



Uptime по данным Ping-Admin.Ru - сервиса мониторинга доступности сайтов
Рейтинг@Mail.ru