logo
Международный русскоязычный
торрент-трекер
Menu
Поделиться с друзьями: 
Голосуй за Корсар и получай 1000 дублонов каждый день
Рейтинг торрент трекеров - UpTracker.ru

Играйте, музыканты / Strike Up the Band (1940, Комедия, мюзикл, мелодрама, BDRemux 1080p) | USA Transfer

Сообщение al1ksandr » 15 сен 2020, 20:48

Название: Играйте, музыканты
Оригинальное название: Strike Up the Band
Год выпуска: 1940
Жанр: Комедия, мюзикл, мелодрама
Режиссер: Басби Беркли
В ролях: Микки Руни, Джуди Гарлэнд, орекстр Пола Уайтмана, Джун Приссер, Уильям Трэйси, Ларри Нанн, Пол Уайтман, Маргарет Ерли, Энн Шоумэйкер, Фрэнсис Пьерло, Ховард С. Хикман, Джек Альбертсон

О фильме: Юный руководитель школьного оркестра из городка Ривервуд Джимми Коннорс мечтает попасть в Чикаго, где известный дирижер Пол Уайтмен проводит конкурс. Победители смогут выступить на радио. Идею Джимми горячо поддерживают и его лучшая подруга, солистка оркестра Мэри Холден, и даже директор школы. Чтобы отправиться на конкурс, необходимы деньги. Кроме того один из музыкантов срочно нуждается в платной операции. Какое решение примет Джимми?



Выпущено: США, Loew's Inc., Metro-Goldwyn-Mayer (MGM)
Продолжительность: 02:00:00
Перевод: Профессиональный двухголосый

Качество: BDRemux 1080p
Видео: MPEG-4 AVC, 34997 Кбит/с, 1920x1080, 23.976 кадр/с
Аудио 1: Rus: AC3 / 48.0 KHz / 1.0 / 192 kbps / Профессиональный двухголосый - студия Пифагор
Аудио 2: Eng: DTS-HD MA / 48.0 KHz / 2.0 / 1801 kbps / 24 bit (DTS Core 48.0 KHz / 2.0 / 1509 kbps / 24 bit)
Субтитры: Английские
Формат субтитров: softsub (SRT)

Оскар, 1941 год
Победитель:
Лучший звук

Номинации:
Лучшая песня — «Our Love Affair»;
Лучший саундтрек

Доп. информация: За перевод студии Пифагор спасибо mrrfrost




Общее
Уникальный идентификатор : 309317251670014504504832126858214999128 (0xE8B455F272359ED0D25AF0FC95D78458)
Полное имя : D:\porvaliparus 2020\Strike.Up.the.Band.1940.BDRemux.1080p.mkv
Формат : Matroska
Версия формата : Version 4 / Version 2
Размер файла : 31,0 Гбайт
Продолжительность : 2 ч. 0 м.
Режим общего битрейта : Переменный
Общий поток : 36,9 Мбит/сек
Название фильма : Strike.Up.the.Band.1940.BDRemux.1080p-porvaliparus
Дата кодирования : UTC 2020-09-14 12:07:58
Программа кодирования : mkvmerge v50.0.0 ('Awakenings') 64-bit
Библиотека кодирования : libebml v1.4.0 + libmatroska v1.6.2

Видео
Идентификатор : 1
Формат : AVC
Формат/Информация : Advanced Video Codec
Профиль формата : High@L4.1
Параметр CABAC формата : Да
Параметр ReFrames формата : 4 кадра
Идентификатор кодека : V_MPEG4/ISO/AVC
Продолжительность : 2 ч. 0 м.
Вид битрейта : Переменный
Битрейт : 34,9 Мбит/сек
Максимальный битрейт : 38,0 Мбит/сек
Ширина : 1920 пикселей
Высота : 1080 пикселей
Соотношение сторон : 16:9
Режим частоты кадров : Постоянный
Частота кадров : 23,976 (24000/1001) кадра/сек
Цветовое пространство : YUV
Субдискретизация насыщенности : 4:2:0
Битовая глубина : 8 бит
Тип развёртки : Прогрессивная
Бит/(Пиксели*Кадры) : 0.702
Размер потока : 29,2 Гбайт (94%)
Заголовок : Strike.Up.the.Band.1940.BDRemux.1080p
Default : Да
Forced : Нет

Аудио #1
Идентификатор : 2
Формат : AC-3
Формат/Информация : Audio Coding 3
Параметр Endianness формата : Big
Идентификатор кодека : A_AC3
Продолжительность : 2 ч. 0 м.
Вид битрейта : Постоянный
Битрейт : 192 Кбит/сек
Каналы : 1 канал
Расположение каналов : Front: C
Частота : 48,0 КГц
Частота кадров : 31,250 кадров/сек (1536 spf)
Битовая глубина : 16 бит
Метод сжатия : С потерями
Размер потока : 165 Мбайт (1%)
Заголовок : DVO [студия Пифагор]
Язык : Russian
ServiceKind/String : Complete Main
Default : Да
Forced : Нет

Аудио #2
Идентификатор : 3
Формат : DTS
Формат/Информация : Digital Theater Systems
Профиль формата : MA / Core
Режим : 16
Параметр Endianness формата : Big
Идентификатор кодека : A_DTS
Продолжительность : 2 ч. 0 м.
Вид битрейта : Переменный / Постоянный
Битрейт : 1801 Кбит/сек / 1509 Кбит/сек
Каналы : 2 канала
Расположение каналов : Front: L R
Частота : 48,0 КГц
Частота кадров : 93,750 кадра/сек (512 spf)
Битовая глубина : 24 бит
Метод сжатия : Без потерь / Lossy
Размер потока : 1,51 Гбайт (5%)
Язык : English
Default : Нет
Forced : Нет

Текст #1
Идентификатор : 4
Формат : UTF-8
Идентификатор кодека : S_TEXT/UTF8
Идентификатор кодека/Информация : UTF-8 Plain Text
Продолжительность : 1 ч. 59 м.
Битрейт : 85 бит/сек
ElementCount : 2220
Размер потока : 74,9 Кбайт (0%)
Заголовок : SDH
Язык : English
Default : Нет
Forced : Нет

Текст #2
Идентификатор : 5
Формат : PGS
Идентификатор кодека : S_HDMV/PGS
Идентификатор кодека/Информация : Picture based subtitle format used on BDs/HD-DVDs
Продолжительность : 1 ч. 59 м.
Битрейт : 45,3 Кбит/сек
ElementCount : 4440
Размер потока : 38,7 Мбайт (0%)
Заголовок : SDH
Язык : English
Default : Нет
Forced : Нет

Меню
00:00:00.000 : en:01
00:05:04.638 : en:02
00:09:29.319 : en:03
00:12:26.746 : en:04
00:17:31.676 : en:05
00:20:24.890 : en:06
00:25:11.510 : en:07
00:27:58.510 : en:08
00:31:21.129 : en:09
00:37:30.874 : en:10
00:42:25.376 : en:11
00:44:58.070 : en:12
00:49:38.517 : en:13
00:53:56.817 : en:14
00:56:49.406 : en:15
01:01:39.112 : en:16
01:08:10.211 : en:17
01:12:31.931 : en:18
01:16:16.781 : en:19
01:18:54.730 : en:20
01:21:01.857 : en:21
01:23:36.011 : en:22
01:26:22.844 : en:23
01:28:56.373 : en:24
01:32:58.072 : en:25
01:36:57.145 : en:26
01:40:43.120 : en:27
01:44:37.271 : en:28
01:48:17.783 : en:29
01:51:14.668 : en:30
01:55:00.977 : en:31
01:55:54.948 : en:32
01:57:39.219 : en:33
01:58:27.892 : en:34
01:59:22.655 : en:35

*************************ИСХОДНИК:**************************

Disc Title: Strike Up the Band (1940)
Disc Label: STRIKE_UP_THE_BAND.1940.1080p.BluRay.AVC.Untouched
Disc Size: 45,270,118,650 bytes
Protection: AACS
Playlist: 00000.MPLS
Size: 34,884,470,784 bytes
Length: 2:00:00.234
Total Bitrate: 38.76 Mbps
Video: MPEG-4 AVC Video / 34997 kbps / 1080p / 23.976 fps / 16:9 / High Profile 4.1
Audio: English / DTS-HD Master Audio / 2.0 / 48 kHz / 1801 kbps / 24-bit (DTS Core: 2.0 / 48 kHz / 1509 kbps / 24-bit)
Subtitle: English / 45.071 kbps
КУБКИ

СТАЖ

МЕДАЛИ
Награды:56

За активную помощь проекту VIP (4) Лучший по количеству кубков (16) За отличные раздачи и качество (13) За подробное оформление раздач (1) За отличные комментарии (15) Почётный форумчанин (3) Верный Сид (1) За участие в конкурсах/играх (2)

Аватара пользователя
СССР
al1ksandr
Главный Модератор-Корсар
  • Торрент
Для скачивания торрента необходимо зарегистрироваться или войти на трекер.

Вернуться в Классика зарубежного кино (фильмы до 1980 года / HD Video)



Рейтинг@Mail.ru