logo
Международный русскоязычный
торрент-трекер
Menu
Doublon
Поделиться с друзьями: 
Голосуй за Корсар и получи 500 дублонов
Рейтинг торрент трекеров - UpTracker.ru

Идеальный шторм / The Perfect Storm (2000, Боевик, триллер, драма, приключения, BDRip-HEVC 1080p) - KORSAR

Сообщение Cthulhu » 15 май 2019, 20:38

Название: Идеальный шторм
Оригинальное название: The Perfect Storm
Год выхода: 2000
Жанр: боевик, триллер, драма, приключения
Режиссер: Вольфганг Петерсен
В ролях: Джордж Клуни, Марк Уолберг, Дайан Лэйн, Джон Си Райли, Уильям Фихтнер, Джон Хоукс, Аллен Пэйн, Мэри Элизабет Мастрантонио, Карен Аллен, Черри Джонс

О фильме: Волны Атлантики вздымаются на 100-футовую высоту. Завывающий ветер невиданной силы. Хэллоуин 1991 года. Стихия наступает на трех фронтах, и один из них — ураган «Грейс» — поднимает сильнейший в истории человечества шторм.



Страна: США
Студия: Baltimore Spring Creek Productions, Radiant Productions, Warner Bros. Pictures
Продолжительность: 02:09:49
Перевод: Профессиональный дублированный, многоголосый, авторский одноголосый

Качество: BDRip-HEVC 1080p
Кодек: HEVC (x265)
Видео: 1918x800, 9076 Кбит/сек, 0.247 бит/(Пиксели*Кадры), 23.976 (24000/1001) кадр/сек, 10 бит
Звук:
Аудио1: Русская, AC3 384 Кбит/сек, 6 канала(ов),16bit 48,0 КГц Дублированный (МОСФИЛЬМ-мастер)
Аудио2: Русская, AC3 640 Кбит/сек, 6 канала(ов),16bit 48,0 КГц Одноголосый (Живов)
Аудио3: Русская, AC3 192 Кбит/сек, 2 канала(ов),16bit 48,0 КГц Одноголосый (Дольский)
Аудио4: Украинская, AC3 384 Кбит/сек, 6 канала(ов),16bit 48,0 КГц Многоголосый (1+1)
Аудио5: Украинская, AC3 192 Кбит/сек, 2 канала(ов),16bit 48,0 КГц Многоголосый (Новый)
Аудио6: English, AC3 640 Кбит/сек, 6 канала(ов),16bit 48,0 КГц Original
Субтитры: Русские, English + SDH
Навигация по главам: Есть

x265 [info]: frame I: 1521, Avg QP:16.88 kb/s: 20280.45
x265 [info]: frame P: 43447, Avg QP:18.51 kb/s: 15548.72
x265 [info]: frame B: 141786, Avg QP:20.69 kb/s: 6972.00
x265 [info]: consecutive B-frames: 9.1% 4.1% 6.3% 48.6% 12.3% 16.6% 1.5% 0.7% 0.3% 0.2% 0.2%

General
Unique ID : 220649386289223734452291826418042034643 (0xA5FF86A9AC59B6F894101A2C41C859D3)
Complete name : T:\HEVC3\Идеальный шторм - The Perfect Storm (2000) BDRip-HEVC 1080p - KORSAR.mkv
Format : Matroska
Format version : Version 4
File size : 10.4 GiB
Duration : 2 h 9 min
Overall bit rate : 11.5 Mb/s
Movie name : The Perfect Storm (2000)_rip_by_Cthulhu
Encoded date : UTC 2019-05-15 16:14:12
Writing application : mkvmerge v33.1.0 ('Primrose') 64-bit
Writing library : libebml v1.3.7 + libmatroska v1.5.0
Cover : Yes
Attachments : cover1.jpg

Video
ID : 1
Format : HEVC
Format/Info : High Efficiency Video Coding
Format profile : Main 10@L4.1@High
Codec ID : V_MPEGH/ISO/HEVC
Duration : 2 h 9 min
Bit rate : 9 076 kb/s
Width : 1 918 pixels
Height : 800 pixels
Display aspect ratio : 2.40:1
Frame rate mode : Constant
Frame rate : 23.976 (24000/1001) FPS
Color space : YUV
Chroma subsampling : 4:2:0
Bit depth : 10 bits
Bits/(Pixel*Frame) : 0.247
Stream size : 8.23 GiB (79%)
Writing library : x265 3.0+1-ed72af837053:[Windows][MSVC 1916][64 bit] 10bit
Encoding settings : cpuid=1111039 / frame-threads=4 / numa-pools=16 / wpp / no-pmode / no-pme / no-psnr / no-ssim / log-level=2 / input-csp=1 / input-res=1918x800 / interlace=0 / total-frames=186754 / level-idc=41 / high-tier=1 / uhd-bd=0 / ref=5 / no-allow-non-conformance / no-repeat-headers / annexb / no-aud / no-hrd / info / hash=0 / no-temporal-layers / open-gop / min-keyint=23 / keyint=240 / gop-lookahead=0 / bframes=10 / b-adapt=2 / b-pyramid / bframe-bias=0 / rc-lookahead=60 / lookahead-slices=1 / scenecut=40 / radl=0 / no-splice / no-intra-refresh / ctu=32 / min-cu-size=8 / rect / amp / max-tu-size=32 / tu-inter-depth=4 / tu-intra-depth=4 / limit-tu=1 / rdoq-level=2 / dynamic-rd=0.00 / no-ssim-rd / signhide / no-tskip / nr-intra=0 / nr-inter=0 / no-constrained-intra / no-strong-intra-smoothing / max-merge=5 / limit-refs=3 / limit-modes / me=3 / subme=7 / merange=57 / temporal-mvp / weightp / weightb / no-analyze-src-pics / deblock=-3:-2 / no-sao / no-sao-non-deblock / rd=6 / no-early-skip / no-rskip / no-fast-intra / no-tskip-fast / no-cu-lossless / no-b-intra / no-splitrd-skip / rdpenalty=0 / psy-rd=2.00 / psy-rdoq=1.00 / no-rd-refine / no-lossless / cbqpoffs=0 / crqpoffs=0 / rc=crf / crf=18.0 / qcomp=0.78 / qpstep=4 / stats-write=0 / stats-read=0 / vbv-maxrate=50000 / vbv-bufsize=50000 / vbv-init=0.9 / crf-max=0.0 / crf-min=0.0 / ipratio=1.40 / pbratio=1.30 / aq-mode=1 / aq-strength=1.00 / no-cutree / zone-count=1 / zones: / start-frame=177444 / end-frame=186753 / qp=35 / no-strict-cbr / qg-size=32 / no-rc-grain / qpmax=69 / qpmin=0 / no-const-vbv / sar=1 / overscan=0 / videoformat=5 / range=0 / colorprim=1 / transfer=1 / colormatrix=1 / chromaloc=0 / display-window=0 / max-cll=0,0 / min-luma=0 / max-luma=1023 / log2-max-poc-lsb=8 / vui-timing-info / vui-hrd-info / slices=1 / no-opt-qp-pps / no-opt-ref-list-length-pps / no-multi-pass-opt-rps / scenecut-bias=0.05 / no-opt-cu-delta-qp / no-aq-motion / no-hdr / no-hdr-opt / no-dhdr10-opt / no-idr-recovery-sei / analysis-reuse-level=5 / scale-factor=0 / refine-intra=0 / refine-inter=0 / refine-mv=0 / refine-ctu-distortion=0 / no-limit-sao / ctu-info=0 / no-lowpass-dct / refine-analysis-type=0 / copy-pic=1 / max-ausize-factor=1.0 / no-dynamic-refine / no-single-sei / hevc-aq / qp-adaptation-range=2.00
Language : English
Default : Yes
Forced : No
Color range : Limited
Color primaries : BT.709
Transfer characteristics : BT.709
Matrix coefficients : BT.709

Audio #1
ID : 2
Format : AC-3
Format/Info : Audio Coding 3
Commercial name : Dolby Digital
Codec ID : A_AC3
Duration : 2 h 9 min
Bit rate mode : Constant
Bit rate : 384 kb/s
Channel(s) : 6 channels
Channel layout : L R C LFE Ls Rs
Sampling rate : 48.0 kHz
Frame rate : 31.250 FPS (1536 SPF)
Bit depth : 16 bits
Compression mode : Lossy
Stream size : 357 MiB (3%)
Title : Dub (МОСФИЛЬМ-мастер)
Language : Russian
Service kind : Complete Main
Default : Yes
Forced : No

Audio #2
ID : 3
Format : AC-3
Format/Info : Audio Coding 3
Commercial name : Dolby Digital
Codec ID : A_AC3
Duration : 2 h 9 min
Bit rate mode : Constant
Bit rate : 640 kb/s
Channel(s) : 6 channels
Channel layout : L R C LFE Ls Rs
Sampling rate : 48.0 kHz
Frame rate : 31.250 FPS (1536 SPF)
Bit depth : 16 bits
Compression mode : Lossy
Stream size : 594 MiB (6%)
Title : AVO (Живов)
Language : Russian
Service kind : Complete Main
Default : No
Forced : No

Audio #3
ID : 4
Format : AC-3
Format/Info : Audio Coding 3
Commercial name : Dolby Digital
Codec ID : A_AC3
Duration : 2 h 9 min
Bit rate mode : Constant
Bit rate : 192 kb/s
Channel(s) : 2 channels
Channel layout : L R
Sampling rate : 48.0 kHz
Frame rate : 31.250 FPS (1536 SPF)
Bit depth : 16 bits
Compression mode : Lossy
Stream size : 178 MiB (2%)
Title : AVO (Дольский)
Language : Russian
Service kind : Complete Main
Default : No
Forced : No

Audio #4
ID : 5
Format : AC-3
Format/Info : Audio Coding 3
Commercial name : Dolby Digital
Codec ID : A_AC3
Duration : 2 h 9 min
Bit rate mode : Constant
Bit rate : 384 kb/s
Channel(s) : 6 channels
Channel layout : L R C LFE Ls Rs
Sampling rate : 48.0 kHz
Frame rate : 31.250 FPS (1536 SPF)
Bit depth : 16 bits
Compression mode : Lossy
Stream size : 357 MiB (3%)
Title : MVO (1+1)
Language : Ukrainian
Service kind : Complete Main
Default : No
Forced : No

Audio #5
ID : 6
Format : AC-3
Format/Info : Audio Coding 3
Commercial name : Dolby Digital
Codec ID : A_AC3
Duration : 2 h 9 min
Bit rate mode : Constant
Bit rate : 192 kb/s
Channel(s) : 2 channels
Channel layout : L R
Sampling rate : 48.0 kHz
Frame rate : 31.250 FPS (1536 SPF)
Bit depth : 16 bits
Compression mode : Lossy
Stream size : 178 MiB (2%)
Title : MVO (Новый)
Language : Ukrainian
Service kind : Complete Main
Default : No
Forced : No

Audio #6
ID : 7
Format : AC-3
Format/Info : Audio Coding 3
Commercial name : Dolby Digital
Codec ID : A_AC3
Duration : 2 h 9 min
Bit rate mode : Constant
Bit rate : 640 kb/s
Channel(s) : 6 channels
Channel layout : L R C LFE Ls Rs
Sampling rate : 48.0 kHz
Frame rate : 31.250 FPS (1536 SPF)
Bit depth : 16 bits
Compression mode : Lossy
Stream size : 594 MiB (6%)
Title : Original
Language : English
Service kind : Complete Main
Default : No
Forced : No

Text #1
ID : 8
Format : UTF-8
Codec ID : S_TEXT/UTF8
Codec ID/Info : UTF-8 Plain Text
Duration : 2 h 3 min
Bit rate : 62 b/s
Count of elements : 1262
Stream size : 56.0 KiB (0%)
Title : RUS full
Language : Russian
Default : No
Forced : No

Text #2
ID : 9
Format : UTF-8
Codec ID : S_TEXT/UTF8
Codec ID/Info : UTF-8 Plain Text
Duration : 2 h 0 min
Bit rate : 40 b/s
Count of elements : 1243
Stream size : 35.4 KiB (0%)
Title : ENG
Language : English
Default : No
Forced : No

Text #3
ID : 10
Format : UTF-8
Codec ID : S_TEXT/UTF8
Codec ID/Info : UTF-8 Plain Text
Duration : 2 h 7 min
Bit rate : 42 b/s
Count of elements : 1406
Stream size : 39.9 KiB (0%)
Title : ENG SDH
Language : English
Default : No
Forced : No

Menu
00:00:00.000 : en:
00:05:00.000 : en:
00:10:00.000 : en:
00:15:00.000 : en:
00:20:00.000 : en:
00:25:00.000 : en:
00:30:00.000 : en:
00:35:00.000 : en:
00:40:00.000 : en:
00:45:00.000 : en:
00:50:00.000 : en:
00:55:00.000 : en:
01:00:00.000 : en:
01:05:00.000 : en:
01:10:00.000 : en:
01:15:00.000 : en:
01:20:00.000 : en:
01:25:00.000 : en:
01:30:00.000 : en:
01:35:00.000 : en:
01:40:00.000 : en:
01:45:00.000 : en:
01:50:00.000 : en:
01:55:00.000 : en:
02:00:00.000 : en:
02:05:00.000 : en:






Автор: Cthulhu
Просьба отключить блокировщики рекламы на странице скриншотов по адресу: http://3.lostpic.net/, этим Вы поможете существованию проекта. Заранее спасибо!
КУБКИ

СТАЖ

МЕДАЛИ
Награды:58

За помощь проекту (13) Лучший по количеству кубков (1) За отличные раздачи и качество (25) За отличные комментарии (3) Почётный форумчанин (2) Верный Сид (12)

Аватара пользователя
СССР
Cthulhu
Главный Модератор-Корсар
Раздачи группы KORSAR разрешено перезаливать спустя сутки после публикации, с обязательным добавлением банера, или указанием группы в заголовке раздачи
  • Торрент
Для скачивания торрента необходимо зарегистрироваться или войти на трекер.

Сообщение filbi1976 » 15 май 2019, 20:42

Зачётный кин. :10 balov:
Алексей, спасибо! :hi: :-drinks:
Посмотреть товар в профиле пользователя

Нажмите на изображение, чтобы увидеть в полный размер  
1 шт.
Нажмите на изображение, чтобы увидеть в полный размер  
1 шт.
Нажмите на изображение, чтобы увидеть в полный размер  
1 шт.
Нажмите на изображение, чтобы увидеть в полный размер  
1 шт.
Нажмите на изображение, чтобы увидеть в полный размер  
1 шт.
Нажмите на изображение, чтобы увидеть в полный размер  
1 шт.
Нажмите на изображение, чтобы увидеть в полный размер  
1 шт.
Нажмите на изображение, чтобы увидеть в полный размер  
1 шт.
Нажмите на изображение, чтобы увидеть в полный размер  
1 шт.
Нажмите на изображение, чтобы увидеть в полный размер  
1 шт.
Нажмите на изображение, чтобы увидеть в полный размер  
1 шт.
Нажмите на изображение, чтобы увидеть в полный размер  
1 шт.
Нажмите на изображение, чтобы увидеть в полный размер  
1 шт.
Нажмите на изображение, чтобы увидеть в полный размер  
1 шт.
Нажмите на изображение, чтобы увидеть в полный размер  
1 шт.
КУБКИ

СТАЖ

МЕДАЛИ
Награды:104

За помощь проекту (2) За отличные раздачи и качество (68) За отличные комментарии (4) Почётный форумчанин (3) Верный Сид (24) За участие в конкурсах/играх (1)

Аватара пользователя
Тортуга
filbi1976
Администратор-Корсар

Сообщение Cthulhu » 15 май 2019, 21:03

filbi1976
:bajan: :party2:
КУБКИ

СТАЖ

МЕДАЛИ
Награды:58

За помощь проекту (13) Лучший по количеству кубков (1) За отличные раздачи и качество (25) За отличные комментарии (3) Почётный форумчанин (2) Верный Сид (12)

Аватара пользователя
СССР
Cthulhu
Главный Модератор-Корсар

Сообщение mafo2 » 20 май 2019, 20:04

Спасибо! Классный фильм.
КУБКИ

СТАЖ

МЕДАЛИ


Аватара пользователя
mafo2
Опытный Корсар

Сообщение dimas » 20 май 2019, 20:40

Офигенский фильмец!Спасибо! :senks2: :senks2: :senks2:
КУБКИ

СТАЖ

МЕДАЛИ
Награды:3

За отличные комментарии (3)

Аватара пользователя
dimas
Опытный Корсар


Вернуться в Фильмы HEVC (HEVC Video)



Uptime по данным Ping-Admin.Ru - сервиса мониторинга доступности сайтов
Рейтинг@Mail.ru Голосуйте за наш сайт в каталоге Rubo.Ru