logo
Международный русскоязычный
торрент-трекер
Menu
Поделиться с друзьями: 
Голосуй за Корсар и получи 500 дублонов
Рейтинг торрент трекеров - UpTracker.ru

Идеальная няня / Chanson douce / Perfect Nanny (2019, драма, криминал, BDRip 1080p) | iTunes

Сообщение kisa1980 » 22 май 2020, 15:43

Название: Идеальная няня
Оригинальное название: Chanson douce / Perfect Nanny
Год выхода: 2019
Жанр: Драма, криминал
Режиссер: Люси Борлето
В ролях: Карин Вьяр, Лейла Бехти, Антуан Райнарц, Ассия Да Сильва, Ноэль Ренод, Рехаб Мехаль Бенсаин, Калипсо Перетятко, Бенжамин Патисье, Макс Патисье, Лор Джаппикони

О фильме: У нее есть ключи от их квартиры. Они сами впустили ее в свою жизнь и отдали в ее руки своих детей. Молодая пара не могла даже мечтать, что сможет найти идеальную няню - строгую, опрятную француженку с огромным опытом. Она выглядит заботливой и доброй, но в ее душе скрывается всепоглощающая тьма.



Страна: Франция
Студия: Why Not Productions, Pan Européenne, StudioCanal
Продолжительность: 01:39:23
Перевод: Дублированный | iTunes

Качество: BDRip 1080p
Видео: MPEG-4 AVC, 1920x1038, 10.0 Mbit/s, 24.000 fps
Аудио 1: 48 kHz, AC3, 5.1, 384 Kbps | iTunes | RUS |
Аудио 2: 48 kHz, AC3, 5.1, 640 Kbps | Оригинал | FRE |
Субтитры: Русские (Forced, full), английские

Релиз от:

General
Unique ID : 333490481424577221511889162597136824223 (0xFAE3EE30F269E22ACA981BA67FA3779F)
Complete name : E:Video111Chanson.Douce.2019.BDRip.1080p.seleZen.mkv
Format : Matroska
Format version : Version 4
File size : 7.65 GiB
Duration : 1 h 39 min
Overall bit rate : 11.0 Mb/s
Movie name : Chanson douce / Perfect Nanny 2019 from селезень
Encoded date : UTC 2020-05-22 12:11:10
Writing application : mkvmerge v40.0.0 ('Old Town Road + Pony') 64-bit
Writing library : libebml v1.3.9 + libmatroska v1.5.2

Video
ID : 1
Format : AVC
Format/Info : Advanced Video Codec
Format profile : High@L4.1
Format settings : CABAC / 4 Ref Frames
Format settings, CABAC : Yes
Format settings, Reference : 4 frames
Codec ID : V_MPEG4/ISO/AVC
Duration : 1 h 39 min
Bit rate : 10 000 kb/s
Width : 1 920 pixels
Height : 1 038 pixels
Display aspect ratio : 1.85:1
Frame rate mode : Constant
Frame rate : 24.000 FPS
Color space : YUV
Chroma subsampling : 4:2:0
Bit depth : 8 bits
Scan type : Progressive
Bits/(Pixel*Frame) : 0.209
Stream size : 6.94 GiB (91%)
Title : Encoded by seleZen
Writing library : x264 core 142 r2431+42 c69a006 tMod [8-bit@all X86_64]
Encoding settings : cabac=1 / ref=4 / deblock=1:-2:-2 / analyse=0x3:0x133 / me=umh / subme=11 / psy=1 / fade_compensate=0.00 / psy_rd=1.00:0.00 / mixed_ref=1 / me_range=48 / chroma_me=1 / trellis=2 / 8x8dct=1 / cqm=0 / deadzone=21,11 / fast_pskip=0 / chroma_qp_offset=-2 / threads=24 / lookahead_threads=6 / sliced_threads=0 / nr=0 / decimate=0 / interlaced=0 / bluray_compat=0 / constrained_intra=0 / fgo=0 / bframes=10 / b_pyramid=2 / b_adapt=2 / b_bias=0 / direct=3 / weightb=1 / open_gop=0 / weightp=2 / keyint=240 / keyint_min=24 / scenecut=40 / intra_refresh=0 / rc_lookahead=50 / rc=2pass / mbtree=0 / bitrate=10000 / ratetol=1.0 / qcomp=0.60 / qpmin=0:0:0 / qpmax=51:51:51 / qpstep=4 / cplxblur=20.0 / qblur=0.5 / vbv_maxrate=50000 / vbv_bufsize=62500 / nal_hrd=none / filler=0 / ip_ratio=1.40 / pb_ratio=1.30 / aq=3:0.80 / aq-sensitivity=10.00 / aq-factor=1.00:1.00:1.00 / aq2=0 / aq3=0
Language : French
Default : Yes
Forced : No

Audio #1
ID : 2
Format : AC-3
Format/Info : Audio Coding 3
Commercial name : Dolby Digital
Codec ID : A_AC3
Duration : 1 h 39 min
Bit rate mode : Constant
Bit rate : 384 kb/s
Channel(s) : 6 channels
Channel layout : L R C LFE Ls Rs
Sampling rate : 48.0 kHz
Frame rate : 31.250 FPS (1536 SPF)
Compression mode : Lossy
Stream size : 273 MiB (3%)
Title : iTunes
Language : Russian
Service kind : Complete Main
Default : Yes
Forced : Yes

Audio #2
ID : 3
Format : AC-3
Format/Info : Audio Coding 3
Commercial name : Dolby Digital
Codec ID : A_AC3
Duration : 1 h 39 min
Bit rate mode : Constant
Bit rate : 640 kb/s
Channel(s) : 6 channels
Channel layout : L R C LFE Ls Rs
Sampling rate : 48.0 kHz
Frame rate : 31.250 FPS (1536 SPF)
Compression mode : Lossy
Stream size : 455 MiB (6%)
Title : Original
Language : French
Service kind : Complete Main
Default : No
Forced : No

Text #1
ID : 4
Format : UTF-8
Codec ID : S_TEXT/UTF8
Codec ID/Info : UTF-8 Plain Text
Duration : 38 min 32 s
Bit rate : 1 b/s
Count of elements : 7
Stream size : 479 Bytes (0%)
Title : Forced
Language : Russian
Default : Yes
Forced : Yes

Text #2
ID : 5
Format : UTF-8
Codec ID : S_TEXT/UTF8
Codec ID/Info : UTF-8 Plain Text
Duration : 1 h 35 min
Bit rate : 98 b/s
Count of elements : 1129
Stream size : 68.6 KiB (0%)
Title : Full
Language : Russian
Default : No
Forced : No

Text #3
ID : 6
Format : UTF-8
Codec ID : S_TEXT/UTF8
Codec ID/Info : UTF-8 Plain Text
Duration : 1 h 34 min
Bit rate : 38 b/s
Count of elements : 1048
Stream size : 26.8 KiB (0%)
Title : Full
Language : English
Default : No
Forced : No

Menu
00:00:00.000 : fr:
00:09:54.458 : fr:
00:18:40.292 : fr:
00:28:29.000 : fr:
00:36:02.458 : fr:
00:45:40.042 : fr:
00:54:41.458 : fr:
01:03:56.333 : fr:
01:10:50.292 : fr:
01:20:32.000 : fr:
01:29:40.458 : fr:
01:35:35.375 : fr:
КУБКИ

СТАЖ

МЕДАЛИ
Награды:115

За активную помощь проекту (12) Лучший по количеству кубков (4) За отличные раздачи и качество (43) За подробное оформление раздач (10) За отличные комментарии (10) Почётный форумчанин (3) Верный Сид (30) За участие в конкурсах/играх (2)

Аватара пользователя
Тортуга
kisa1980
Главный помощник Администратора-Корсар
  • Торрент
Для скачивания торрента необходимо зарегистрироваться или войти на трекер.

Вернуться в Зарубежное кино (2011-2020 / HD Video)



Uptime по данным Ping-Admin.Ru - сервиса мониторинга доступности сайтов
Рейтинг@Mail.ru