logo
Международный русскоязычный
торрент-трекер
Menu
Поделиться с друзьями: 
Голосуй за Корсар и получи 500 дублонов
Рейтинг торрент трекеров - UpTracker.ru

Идеальная няня / Chanson douce / Perfect Nanny (2019, драма, криминал, BDRemux 1080p) | iTunes

Сообщение kisa1980 » 22 май 2020, 15:43

Название: Идеальная няня
Оригинальное название: Chanson douce / Perfect Nanny
Год выхода: 2019
Жанр: Драма, криминал
Режиссер: Люси Борлето
В ролях: Карин Вьяр, Лейла Бехти, Антуан Райнарц, Ассия Да Сильва, Ноэль Ренод, Рехаб Мехаль Бенсаин, Калипсо Перетятко, Бенжамин Патисье, Макс Патисье, Лор Джаппикони

О фильме: У нее есть ключи от их квартиры. Они сами впустили ее в свою жизнь и отдали в ее руки своих детей. Молодая пара не могла даже мечтать, что сможет найти идеальную няню - строгую, опрятную француженку с огромным опытом. Она выглядит заботливой и доброй, но в ее душе скрывается всепоглощающая тьма.



Страна: Франция
Студия: Why Not Productions, Pan Européenne, StudioCanal
Продолжительность: 01:39:23
Перевод: Дублированный | iTunes

Качество: BDRemux 1080p
Видео: MPEG-4 AVC, 1920x1080, 27.9 Mbit/s, 24.000 fps
Аудио 1: 48 kHz, AC3, 5.1, 384 Kbps | iTunes | RUS |
Аудио 2: 48 kHz, DTS-HD MA, 5.1, 2731 Kbps | Оригинал | FRE |
Субтитры: Русские (Forced, full), английские

Релиз от:

General
Unique ID : 203789096774917148970641605896117215240 (0x99505A35B250343207D9E2F7DE44E008)
Complete name : E:Video111Chanson.Douce.2019.BDREMUX.1080p.seleZen.mkv
Format : Matroska
Format version : Version 4
File size : 16.5 GiB
Duration : 1 h 39 min
Overall bit rate mode : Variable
Overall bit rate : 23.7 Mb/s
Movie name : Chanson douce / Perfect Nanny 2019 from селезень
Encoded date : UTC 2020-05-22 11:50:11
Writing application : mkvmerge v40.0.0 ('Old Town Road + Pony') 64-bit
Writing library : libebml v1.3.9 + libmatroska v1.5.2

Video
ID : 1
Format : AVC
Format/Info : Advanced Video Codec
Format profile : High@L4.1
Format settings : CABAC / 2 Ref Frames
Format settings, CABAC : Yes
Format settings, Reference : 2 frames
Format settings, GOP : M=3, N=24
Codec ID : V_MPEG4/ISO/AVC
Duration : 1 h 39 min
Bit rate mode : Variable
Bit rate : 20.6 Mb/s
Maximum bit rate : 31.7 Mb/s
Width : 1 920 pixels
Height : 1 080 pixels
Display aspect ratio : 16:9
Frame rate mode : Constant
Frame rate : 24.000 FPS
Color space : YUV
Chroma subsampling : 4:2:0
Bit depth : 8 bits
Scan type : Progressive
Bits/(Pixel*Frame) : 0.414
Stream size : 14.3 GiB (87%)
Language : French
Default : Yes
Forced : No

Audio #1
ID : 2
Format : AC-3
Format/Info : Audio Coding 3
Commercial name : Dolby Digital
Codec ID : A_AC3
Duration : 1 h 39 min
Bit rate mode : Constant
Bit rate : 384 kb/s
Channel(s) : 6 channels
Channel layout : L R C LFE Ls Rs
Sampling rate : 48.0 kHz
Frame rate : 31.250 FPS (1536 SPF)
Compression mode : Lossy
Stream size : 273 MiB (2%)
Title : iTunes
Language : Russian
Service kind : Complete Main
Default : Yes
Forced : Yes

Audio #2
ID : 3
Format : DTS XLL
Format/Info : Digital Theater Systems
Commercial name : DTS-HD Master Audio
Codec ID : A_DTS
Duration : 1 h 39 min
Bit rate mode : Variable
Bit rate : 2 731 kb/s
Channel(s) : 6 channels
Channel layout : C L R Ls Rs LFE
Sampling rate : 48.0 kHz
Frame rate : 93.750 FPS (512 SPF)
Bit depth : 24 bits
Compression mode : Lossless
Stream size : 1.90 GiB (12%)
Title : Original
Language : French
Default : No
Forced : No

Text #1
ID : 4
Format : UTF-8
Codec ID : S_TEXT/UTF8
Codec ID/Info : UTF-8 Plain Text
Duration : 38 min 32 s
Bit rate : 1 b/s
Count of elements : 7
Stream size : 479 Bytes (0%)
Title : Forced
Language : Russian
Default : Yes
Forced : Yes

Text #2
ID : 5
Format : UTF-8
Codec ID : S_TEXT/UTF8
Codec ID/Info : UTF-8 Plain Text
Duration : 1 h 35 min
Bit rate : 98 b/s
Count of elements : 1129
Stream size : 68.6 KiB (0%)
Title : Full
Language : Russian
Default : No
Forced : No

Text #3
ID : 6
Format : UTF-8
Codec ID : S_TEXT/UTF8
Codec ID/Info : UTF-8 Plain Text
Duration : 1 h 34 min
Bit rate : 38 b/s
Count of elements : 1048
Stream size : 26.8 KiB (0%)
Title : Full
Language : English
Default : No
Forced : No

Menu
00:00:00.000 : fr:
00:09:54.458 : fr:
00:18:40.292 : fr:
00:28:29.000 : fr:
00:36:02.458 : fr:
00:45:40.042 : fr:
00:54:41.458 : fr:
01:03:56.333 : fr:
01:10:50.292 : fr:
01:20:32.000 : fr:
01:29:40.458 : fr:
01:35:35.375 : fr:
КУБКИ

СТАЖ

МЕДАЛИ
Награды:115

За активную помощь проекту (12) Лучший по количеству кубков (4) За отличные раздачи и качество (43) За подробное оформление раздач (10) За отличные комментарии (10) Почётный форумчанин (3) Верный Сид (30) За участие в конкурсах/играх (2)

Аватара пользователя
Тортуга
kisa1980
Главный помощник Администратора-Корсар
  • Торрент
Для скачивания торрента необходимо зарегистрироваться или войти на трекер.

Вернуться в Зарубежное кино (2011-2020 / HD Video)



Uptime по данным Ping-Admin.Ru - сервиса мониторинга доступности сайтов
Рейтинг@Mail.ru