logo
Международный русскоязычный
торрент-трекер
Menu
"Бунт на корабле", за скачанные торрент-файлы дублоны не снимаются. Возможность оплачена пользователем Булкин Семён.
Doublon
Поделиться с друзьями: 
Голосуй за Корсар и получи 500 дублонов
Рейтинг торрент трекеров - UpTracker.ru

Идеал / Ideal / Сезон: 7 / Серии: 1-6 (6) (2011, комедия, криминал, PDTVRip)

Сообщение Korsar » 12 ноя 2016, 21:28

Идеал / Ideal

Год выпуска: 2011
Страна:Великобритания
Жанр: ситком, черная комедия

Продолжительность серии: 00:27
Перевод: Профессиональный двухголосый закадровый(Кубик в Кубе)
Создатель сериала, автор идеи и сценария: Graham Duff
Субтитры: англ, рус(anna17anna)
В ролях:
Джонни Вегас, Никола Рейнольдс, Джеймс Фостер, Сеймур Леон Мейс, Райан Роуп, Том Гудман-Хилл, Тони Берджесс, Ронни Джутти, Грэм Дафф, Шинед Мэтьюз, Бен Кромптон и другие.

Описание:
Продолжение всеми любимой истории Моза - торговца легкими наркотиками из пригорода Манчестера.
Многие задавались вопросом после окончания 5-го сезона: как-то сложится судьба Моза и Дженни? Доберутся ли они до Португалии по поддельным паспортам? Вернутся ли обратно? Где и когда увидим мы их в следующий раз? И вот, долгое ожидание вознаграждено: Моз возвращается в Салфорд! Уже в первой серии мы увидим Моза и Дженни, ПиСи и Ники (которые теперь живут в квартире Моза), а также того самого Роджера Мачмора, по чьему паспорту путешествовал Моз.
Дальше - больше: Моз теряет свой марихуановый бизнес и получает приглашение заняться торговлей органами, семейным "бизнесом" вместе с папой и братом, пытается снова сбежать за границу, становится на пути у криминальной Триады Ло, которая берет в заложники его папу со своей слепой подружкой, и так далее.
Помимо обычного актерского состава в 6 сезоне приняли участие Janeane Garofalo (West Wing, 24), музыкант Barry Adamson (браво и низкий поклон за это мистеру Даффу!), известный британский комик Steve Coogan.
Качество: PDTVRip
Формат: AVI
Видео: 640x352 (1.82:1), 25 fps, XviD MPEG-4 ~1013 kbps avg, 0.18 bit/pixel
Аудио Rus: 48 kHz, MPEG Layer 3, 2 ch, ~256.00 kbps avg
Аудио Eng: 48 kHz, MPEG Layer 3, 2 ch, ~122.98 kbps avg


Перевод: anna17anna
Озвучка: Кубик в Кубе
Внимание! Сериал содержит ненормативную лексику и откровенные сцены!

General
Complete name : H:\Фтп 3\Сериалы\Идеал(Ideal)\Ideal Season 7 Kybik v Kybe\Ideal.s07e01.rus.eng.Kybik.v.Kybe.avi
Format : AVI
Format/Info : Audio Video Interleave
File size : 286 MiB
Duration : 28mn 18s
Overall bit rate : 1 412 Kbps
Writing application : VirtualDubMod 1.5.10.2 (build 2542/release)
Writing library : VirtualDubMod build 2542/release

Video
ID : 0
Format : MPEG-4 Visual
Format profile : Advanced Simple@L5
Format settings, BVOP : Yes
Format settings, QPel : No
Format settings, GMC : No warppoints
Format settings, Matrix : Default (H.263)
Muxing mode : Packed bitstream
Codec ID : XVID
Codec ID/Hint : XviD
Duration : 28mn 18s
Bit rate : 1 015 Kbps
Width : 640 pixels
Height : 352 pixels
Display aspect ratio : 16:9
Frame rate : 25.000 fps
Color space : YUV
Chroma subsampling : 4:2:0
Bit depth : 8 bits
Scan type : Progressive
Bits/(Pixel*Frame) : 0.180
Stream size : 206 MiB (72%)
Writing library : XviD 1.2.1 (UTC 2008-12-04)

Audio #1
ID : 1
Format : MPEG Audio
Format version : Version 1
Format profile : Layer 3
Codec ID : 55
Codec ID/Hint : MP3
Duration : 28mn 18s
Bit rate mode : Constant
Bit rate : 256 Kbps
Channel(s) : 2 channels
Sampling rate : 48.0 KHz
Stream size : 51.8 MiB (18%)
Alignment : Aligned on interleaves
Interleave, duration : 40 ms (1.00 video frame)
Interleave, preload duration : 504 ms

Audio #2
ID : 2
Format : MPEG Audio
Format version : Version 1
Format profile : Layer 3
Mode : Joint stereo
Mode extension : MS Stereo
Codec ID : 55
Codec ID/Hint : MP3
Duration : 28mn 18s
Bit rate mode : Variable
Bit rate : 128 Kbps
Channel(s) : 2 channels
Sampling rate : 48.0 KHz
Stream size : 24.9 MiB (9%)
Alignment : Aligned on interleaves
Interleave, duration : 24 ms (0.60 video frame)
Interleave, preload duration : 496 ms
Writing library : LAME3.98r
Encoding settings : -m j -V 4 -q 2 -lowpass 17 --abr 128

The Police
The Debtors
The Brothel
The Paintings
The Love
[*]The Red King
КУБКИ

СТАЖ

МЕДАЛИ
Награды:8

Лучший по количеству кубков (1) За отличные раздачи и качество (2) За отличные комментарии (2) Почётный форумчанин (1) Верный Сид (2)

Аватара пользователя
СССР
Korsar
Заслуженный Корсар-Вип+
  • Торрент
Для скачивания торрента необходимо зарегистрироваться или войти на трекер.

Вернуться в Зарубежные сериалы



Uptime по данным Ping-Admin.Ru - сервиса мониторинга доступности сайтов
Рейтинг@Mail.ru