logo
Международный русскоязычный
торрент-трекер
Menu
Поделиться с друзьями: 
Голосуй за Корсар и получи 500 дублонов
Рейтинг торрент трекеров - UpTracker.ru

И в бедности, и в богатстве / For Richer or Poorer (1997, комедия, WEB-DL 1080p) | Open Matte

Сообщение kisa1980 » 22 май 2020, 23:08

Название: И в бедности, и в богатстве
Оригинальное название: For Richer or Poorer
Год выхода: 1997
Жанр: Комедия
Режиссер: Брайан Спайсер
В ролях: Тим Аллен, Кёрсти Элли, Кэрри Престон, Уэйн Найт, Джэй О. Сэндерс, Мигель А. Нуньес мл., Миган Кэвэна, Мария Мэйплз, Лэрри Миллер, Джон Капонера, Итэн Филлипс, Джон Пайпер-Фергюсон, Майкл Лернер

О фильме: Брэд и Кэролин — супружеская пара, живущая в престижном районе Нью — Йорка. Однажды махинации бухгалтера семьи приводят к тому, что супруги оказываются должны налоговым органам более трех миллионов долларов. Брэд и Кэролин решают исчезнуть из города и для этого притворяются, что являются кузенами одной из семей из общины Амишей.



Страна: США
Выпущено: Sheinberg Productions, The Bubble Factory, Universal Pictures, Yorktown Productions
Продолжительность: 01:55:28
Перевод: Профессиональный двухголосый

Качество: WEB-DL 1080p
Формат: MKV
Видео: AVC/H.264, 1920x1080, 23.976 fps, ~10.0 Mbps
Аудио 1: AC3, 2 ch, 192 Kbps - Русский (DVO R5)
Аудио 2: AC3, 2 ch, 192 Kbps - Русский (DVO SDI Media)
Аудио 3: E-AC3, 6 ch, 640 Kbps - Английский
Субтитры: Английские

Исходник видео WEB-DL Amazon STARZ (периодически появляется логотип).
Open Matte-версия фильма имеет большее наполнение кадра по сравнению с Blu-ray.




General
Unique ID : 241423853134627788440219288579847249344 (0xB5A08AF5362D9AC685FDEEA62C785DC0)
Complete name : D:For Richer or Poorer (1997) Open Matte 1080p.mkv
Format : Matroska
Format version : Version 4
File size : 8.93 GiB
Duration : 1 h 55 min
Overall bit rate mode : Variable
Overall bit rate : 11.1 Mb/s
Encoded date : UTC 2020-05-22 15:48:08
Writing application : mkvmerge v8.3.0 ('Over the Horizon') 32bit
Writing library : libebml v1.3.1 + libmatroska v1.4.2

Video
ID : 1
Format : AVC
Format/Info : Advanced Video Codec
Format profile : High@L4
Format settings : CABAC / 4 Ref Frames
Format settings, CABAC : Yes
Format settings, Reference : 4 frames
Codec ID : V_MPEG4/ISO/AVC
Duration : 1 h 55 min
Bit rate mode : Variable
Bit rate : 10.0 Mb/s
Maximum bit rate : 15.0 Mb/s
Width : 1 920 pixels
Height : 1 080 pixels
Display aspect ratio : 16:9
Frame rate mode : Constant
Frame rate : 23.976 (24000/1001) FPS
Color space : YUV
Chroma subsampling : 4:2:0
Bit depth : 8 bits
Scan type : Progressive
Bits/(Pixel*Frame) : 0.202
Stream size : 8.10 GiB (91%)
Default : Yes
Forced : No
Color range : Limited
Color primaries : BT.709
Transfer characteristics : BT.709
Matrix coefficients : BT.709

Audio #1
ID : 2
Format : AC-3
Format/Info : Audio Coding 3
Commercial name : Dolby Digital
Codec ID : A_AC3
Duration : 1 h 55 min
Bit rate mode : Constant
Bit rate : 192 kb/s
Channel(s) : 2 channels
Channel layout : L R
Sampling rate : 48.0 kHz
Frame rate : 31.250 FPS (1536 SPF)
Bit depth : 16 bits
Compression mode : Lossy
Stream size : 159 MiB (2%)
Title : DVO R5
Language : Russian
Service kind : Complete Main
Default : Yes
Forced : No

Audio #2
ID : 3
Format : AC-3
Format/Info : Audio Coding 3
Commercial name : Dolby Digital
Codec ID : A_AC3
Duration : 1 h 55 min
Bit rate mode : Constant
Bit rate : 192 kb/s
Channel(s) : 2 channels
Channel layout : L R
Sampling rate : 48.0 kHz
Frame rate : 31.250 FPS (1536 SPF)
Bit depth : 16 bits
Compression mode : Lossy
Stream size : 159 MiB (2%)
Title : DVO SDI Media
Language : Russian
Service kind : Complete Main
Default : No
Forced : No

Audio #3
ID : 4
Format : E-AC-3
Format/Info : Enhanced AC-3
Commercial name : Dolby Digital Plus
Codec ID : A_EAC3
Duration : 1 h 55 min
Bit rate mode : Constant
Bit rate : 640 kb/s
Channel(s) : 6 channels
Channel layout : L R C LFE Ls Rs
Sampling rate : 48.0 kHz
Frame rate : 31.250 FPS (1536 SPF)
Compression mode : Lossy
Stream size : 528 MiB (6%)
Language : English
Service kind : Complete Main
Default : No
Forced : No

Text
ID : 5
Format : UTF-8
Codec ID : S_TEXT/UTF8
Codec ID/Info : UTF-8 Plain Text
Duration : 1 h 53 min
Bit rate : 74 b/s
Count of elements : 1616
Stream size : 61.4 KiB (0%)
Title : SDH
Language : English
Default : No
Forced : No
КУБКИ

СТАЖ

МЕДАЛИ
Награды:115

За активную помощь проекту (12) Лучший по количеству кубков (4) За отличные раздачи и качество (43) За подробное оформление раздач (10) За отличные комментарии (10) Почётный форумчанин (3) Верный Сид (30) За участие в конкурсах/играх (2)

Аватара пользователя
Тортуга
kisa1980
Главный помощник Администратора-Корсар
  • Торрент
Для скачивания торрента необходимо зарегистрироваться или войти на трекер.

Вернуться в Зарубежное кино (1991-2000 / HD Video)



Uptime по данным Ping-Admin.Ru - сервиса мониторинга доступности сайтов
Рейтинг@Mail.ru