logo
Международный русскоязычный
торрент-трекер

Храброе сердце / Braveheart (1995, Драма, Военный, Биография, История, BDRip-AVC)

Сообщение Korsar » 04 янв 2017, 13:03

#777

Производство: США / Icon Entertainmnet International, The Ladd Company, Icon Productions, B.H. Finance C.V.
Жанр: Драма, Военный, Биография, История

Режиссер: Мэл Гибсон
Актеры: Мэл Гибсон, Софи Марсо, Патрик МакГуэн, Энгус МакФадьен, Брендан Глисон, Катрин МакКормак, Брайан Кокс, Джерард МакСорли, Мартин Мерфи, Томми Флэнаган, Джон Мурта, Алан Толл, Шон Лоулор, Сэнди Нельсон, Джеймс Космо, Шон МакГинли, Джеймс Робинсон, Эндрю Вейр, Герда Стивенсон, Стивен Биллингтон, Мхэйри Калви

Описание: Действие фильма начинается в 1280 году в Шотландии. Это история легендарного национального героя Уильяма Уолласа, посвятившего себя борьбе с англичанами при короле Эдварде Длинноногом. Он рано лишился отца, погибшего от рук англичан, и его забрал к себе дядя Оргайл, который дал ему хорошее образование в Европе. На родину Уильям возвращается уже взрослым человеком, мечтающем завести семью и жить мирной жизнью. Но судьба распорядилась иначе. Его невесту убили англичане, и он начал свой крестовый поход за свободу.

Продолжительность: 02:57:45
Качество видео: BDRip-AVC
Перевод: Дублированный, профессиональный (многоголосый закадровый) x5, профессиональный (двуголосый закадровый) x2, авторский (одноголосый закадровый) x5
Язык субтитров: Русский (Forced, Full), Английский
Вид субтитров: Вшитые (отключаемые)

Видео: MPEG-4 AVC/H.264, 2700 Kbps, 1024x436
Аудио 01: Русский AC3 5.1, 384 Kbps, 48.0 KHz (Дублированный) Blu-ray CEE
Аудио 02: Русский AC3 5.1, 384 Kbps, 48.0 KHz (Многоголосый закадровый) Киномания
Аудио 03: Русский AC3 5.1, 384 Kbps, 48.0 KHz (Многоголосый закадровый) LDV
Аудио 04: Русский AC3 5.1, 384 Kbps, 48.0 KHz (Многоголосый закадровый) R1
Аудио 05: Русский AC3 5.1, 384 Kbps, 48.0 KHz (Многоголосый закадровый) R5
Аудио 06: Русский AC3 2.0, 224 Kbps, 48.0 KHz (Многоголосый закадровый) ОРТ
Аудио 07: Русский AC3 2.0, 224 Kbps, 48.0 KHz (Двуголосый закадровый) Премьер Видео Фильм
Аудио 08: Русский AC3 5.1, 384 Kbps, 48.0 KHz (Двуголосый закадровый) П. Гланц и И. Королёва
Аудио 09: Русский AC3 5.1, 384 Kbps, 48.0 KHz (Одноголосый закадровый) А. Гаврилов
Аудио 10: Русский AC3 5.1, 384 Kbps, 48.0 KHz (Одноголосый закадровый) С. Визгунов
Аудио 11: Русский AC3 5.1, 384 Kbps, 48.0 KHz (Одноголосый закадровый) Д. Есарев
Аудио 12: Русский AC3 2.0, 224 Kbps, 48.0 KHz (Одноголосый закадровый) А. Кашкин
Аудио 13: Русский AC3 2.0, 224 Kbps, 48.0 KHz (Одноголосый закадровый) Орбита
Аудио 14: Английский AC3 5.1, 448 Kbps, 48.0 KHz (Оригинал)

Общее
Полное имя : Храброе сердце.mkv
Формат : Matroska
Версия формата : Version 1
Размер файла : 9,28 Гбайт
Продолжительность : 2 ч. 57 м.
Общий поток : 7475 Кбит/сек
Дата кодирования : UTC 2015-12-09 17:43:58
Программа кодирования : mkvmerge v2.4.1 ('Use Me') built on Dec 5 2008 18:30:05
Библиотека кодирования : libebml v0.7.7 + libmatroska v0.8.1

Видео
Идентификатор : 1
Формат : AVC
Формат/Информация : Advanced Video Codec
Профиль формата : High@L4.1
Параметр CABAC формата : Да
Параметр ReFrames формата : 10 кадров
Идентификатор кодека : V_MPEG4/ISO/AVC
Продолжительность : 2 ч. 57 м.
Битрейт : 2526 Кбит/сек
Номинальный битрейт : 2700 Кбит/сек
Ширина : 1024 пикселя
Высота : 436 пикселей
Соотношение сторон : 2,35:1
Режим частоты кадров : Постоянный
Частота кадров : 23,976 кадра/сек
Цветовое пространство : YUV
Субдискретизация насыщенности : 4:2:0
Битовая глубина : 8 бит
Тип развёртки : Прогрессивная
Бит/(Пиксели*Кадры) : 0.236
Размер потока : 3,14 Гбайт (34%)
Заголовок : Храброе сердце (1995)
Библиотека кодирования : x264 core 148 r2638 7599210
Настройки программы : cabac=1 / ref=10 / deblock=1:-3:-3 / analyse=0x3:0x133 / me=umh / subme=10 / psy=1 / psy_rd=1.00:0.10 / mixed_ref=1 / me_range=48 / chroma_me=1 / trellis=2 / 8x8dct=1 / cqm=0 / deadzone=21,11 / fast_pskip=0 / chroma_qp_offset=-3 / threads=6 / lookahead_threads=1 / sliced_threads=0 / nr=0 / decimate=1 / interlaced=0 / bluray_compat=0 / constrained_intra=0 / bframes=5 / b_pyramid=2 / b_adapt=2 / b_bias=0 / direct=3 / weightb=1 / open_gop=0 / weightp=2 / keyint=240 / keyint_min=22 / scenecut=40 / intra_refresh=0 / rc_lookahead=40 / rc=2pass / mbtree=1 / bitrate=2700 / ratetol=1.0 / qcomp=0.60 / qpmin=10 / qpmax=51 / qpstep=4 / cplxblur=20.0 / qblur=0.5 / ip_ratio=1.40 / aq=1:1.00
Язык : English
Default : Да
Forced : Нет

Аудио #1
Идентификатор : 2
Формат : AC-3
Формат/Информация : Audio Coding 3
Расширение режима : CM (complete main)
Параметр Endianness формата : Big
Идентификатор кодека : A_AC3
Продолжительность : 2 ч. 57 м.
Вид битрейта : Постоянный
Битрейт : 384 Кбит/сек
Каналы : 6 каналов
Расположение каналов : Front: L C R, Side: L R, LFE
Частота : 48,0 КГц
Метод сжатия : С потерями
Размер потока : 488 Мбайт (5%)
Заголовок : AC3 (Дублированный) Blu-ray CEE
Язык : Russian
Default : Да
Forced : Нет

Аудио #2
Идентификатор : 3
Формат : AC-3
Формат/Информация : Audio Coding 3
Расширение режима : CM (complete main)
Параметр Endianness формата : Big
Идентификатор кодека : A_AC3
Продолжительность : 2 ч. 57 м.
Вид битрейта : Постоянный
Битрейт : 384 Кбит/сек
Каналы : 6 каналов
Расположение каналов : Front: L C R, Side: L R, LFE
Частота : 48,0 КГц
Метод сжатия : С потерями
Размер потока : 488 Мбайт (5%)
Заголовок : AC3 (Многоголосый) Киномания
Язык : Russian
Default : Нет
Forced : Нет

Аудио #3
Идентификатор : 4
Формат : AC-3
Формат/Информация : Audio Coding 3
Расширение режима : CM (complete main)
Параметр Endianness формата : Big
Идентификатор кодека : A_AC3
Продолжительность : 2 ч. 57 м.
Вид битрейта : Постоянный
Битрейт : 384 Кбит/сек
Каналы : 6 каналов
Расположение каналов : Front: L C R, Side: L R, LFE
Частота : 48,0 КГц
Метод сжатия : С потерями
Размер потока : 488 Мбайт (5%)
Заголовок : AC3 (Многоголосый) LDV
Язык : Russian
Default : Нет
Forced : Нет

Аудио #4
Идентификатор : 5
Формат : AC-3
Формат/Информация : Audio Coding 3
Расширение режима : CM (complete main)
Параметр Endianness формата : Big
Идентификатор кодека : A_AC3
Продолжительность : 2 ч. 57 м.
Вид битрейта : Постоянный
Битрейт : 384 Кбит/сек
Каналы : 6 каналов
Расположение каналов : Front: L C R, Side: L R, LFE
Частота : 48,0 КГц
Метод сжатия : С потерями
Размер потока : 488 Мбайт (5%)
Заголовок : AC3 (Многоголосый) R1
Язык : Russian
Default : Нет
Forced : Нет

Аудио #5
Идентификатор : 6
Формат : AC-3
Формат/Информация : Audio Coding 3
Расширение режима : CM (complete main)
Параметр Endianness формата : Big
Идентификатор кодека : A_AC3
Продолжительность : 2 ч. 57 м.
Вид битрейта : Постоянный
Битрейт : 384 Кбит/сек
Каналы : 6 каналов
Расположение каналов : Front: L C R, Side: L R, LFE
Частота : 48,0 КГц
Метод сжатия : С потерями
Размер потока : 488 Мбайт (5%)
Заголовок : AC3 (Многоголосый) R5
Язык : Russian
Default : Нет
Forced : Нет

Аудио #6
Идентификатор : 7
Формат : AC-3
Формат/Информация : Audio Coding 3
Расширение режима : CM (complete main)
Параметр Endianness формата : Big
Идентификатор кодека : A_AC3
Продолжительность : 2 ч. 57 м.
Вид битрейта : Постоянный
Битрейт : 224 Кбит/сек
Каналы : 2 канала
Расположение каналов : Front: L R
Частота : 48,0 КГц
Метод сжатия : С потерями
Размер потока : 285 Мбайт (3%)
Заголовок : AC3 (Многоголосый) ОРТ
Язык : Russian
Default : Нет
Forced : Нет

Аудио #7
Идентификатор : 8
Формат : AC-3
Формат/Информация : Audio Coding 3
Расширение режима : CM (complete main)
Параметр Endianness формата : Big
Идентификатор кодека : A_AC3
Продолжительность : 2 ч. 57 м.
Вид битрейта : Постоянный
Битрейт : 224 Кбит/сек
Каналы : 2 канала
Расположение каналов : Front: L R
Частота : 48,0 КГц
Метод сжатия : С потерями
Размер потока : 285 Мбайт (3%)
Заголовок : AC3 (Двухголосый) Премьер Видео Фильм
Язык : Russian
Default : Нет
Forced : Нет

Аудио #8
Идентификатор : 9
Формат : AC-3
Формат/Информация : Audio Coding 3
Расширение режима : CM (complete main)
Параметр Endianness формата : Big
Идентификатор кодека : A_AC3
Продолжительность : 2 ч. 57 м.
Вид битрейта : Постоянный
Битрейт : 384 Кбит/сек
Каналы : 6 каналов
Расположение каналов : Front: L C R, Side: L R, LFE
Частота : 48,0 КГц
Метод сжатия : С потерями
Размер потока : 488 Мбайт (5%)
Заголовок : AC3 (Двухголосый) П. Гланц и И. Королёва
Язык : Russian
Default : Нет
Forced : Нет

Аудио #9
Идентификатор : 10
Формат : AC-3
Формат/Информация : Audio Coding 3
Расширение режима : CM (complete main)
Параметр Endianness формата : Big
Идентификатор кодека : A_AC3
Продолжительность : 2 ч. 57 м.
Вид битрейта : Постоянный
Битрейт : 384 Кбит/сек
Каналы : 6 каналов
Расположение каналов : Front: L C R, Side: L R, LFE
Частота : 48,0 КГц
Метод сжатия : С потерями
Размер потока : 488 Мбайт (5%)
Заголовок : AC3 (Одноголосый) А. Гаврилов
Язык : Russian
Default : Нет
Forced : Нет

Аудио #10
Идентификатор : 11
Формат : AC-3
Формат/Информация : Audio Coding 3
Расширение режима : CM (complete main)
Параметр Endianness формата : Big
Идентификатор кодека : A_AC3
Продолжительность : 2 ч. 57 м.
Вид битрейта : Постоянный
Битрейт : 384 Кбит/сек
Каналы : 6 каналов
Расположение каналов : Front: L C R, Side: L R, LFE
Частота : 48,0 КГц
Метод сжатия : С потерями
Размер потока : 488 Мбайт (5%)
Заголовок : AC3 (Одноголосый) С. Визгунов
Язык : Russian
Default : Нет
Forced : Нет

Аудио #11
Идентификатор : 12
Формат : AC-3
Формат/Информация : Audio Coding 3
Расширение режима : CM (complete main)
Параметр Endianness формата : Big
Идентификатор кодека : A_AC3
Продолжительность : 2 ч. 57 м.
Вид битрейта : Постоянный
Битрейт : 384 Кбит/сек
Каналы : 6 каналов
Расположение каналов : Front: L C R, Side: L R, LFE
Частота : 48,0 КГц
Метод сжатия : С потерями
Размер потока : 488 Мбайт (5%)
Заголовок : AC3 (Одноголосый) Д. Есарев
Язык : Russian
Default : Нет
Forced : Нет

Аудио #12
Идентификатор : 13
Формат : AC-3
Формат/Информация : Audio Coding 3
Расширение режима : CM (complete main)
Параметр Endianness формата : Big
Идентификатор кодека : A_AC3
Продолжительность : 2 ч. 57 м.
Вид битрейта : Постоянный
Битрейт : 224 Кбит/сек
Каналы : 2 канала
Расположение каналов : Front: L R
Частота : 48,0 КГц
Метод сжатия : С потерями
Размер потока : 285 Мбайт (3%)
Заголовок : AC3 (Одноголосый) А. Кашкин
Язык : Russian
Default : Нет
Forced : Нет

Аудио #13
Идентификатор : 14
Формат : AC-3
Формат/Информация : Audio Coding 3
Расширение режима : CM (complete main)
Параметр Endianness формата : Big
Идентификатор кодека : A_AC3
Продолжительность : 2 ч. 57 м.
Вид битрейта : Постоянный
Битрейт : 224 Кбит/сек
Каналы : 2 канала
Расположение каналов : Front: L R
Частота : 48,0 КГц
Метод сжатия : С потерями
Размер потока : 285 Мбайт (3%)
Заголовок : AC3 (Одноголосый) Орбита
Язык : Russian
Default : Нет
Forced : Нет

Аудио #14
Идентификатор : 15
Формат : AC-3
Формат/Информация : Audio Coding 3
Расширение режима : CM (complete main)
Параметр Endianness формата : Big
Идентификатор кодека : A_AC3
Продолжительность : 2 ч. 57 м.
Вид битрейта : Постоянный
Битрейт : 448 Кбит/сек
Каналы : 6 каналов
Расположение каналов : Front: L C R, Side: L R, LFE
Частота : 48,0 КГц
Метод сжатия : С потерями
Размер потока : 570 Мбайт (6%)
Заголовок : AC3 (Оригинал)
Язык : English
Default : Нет
Forced : Нет

Текст #1
Идентификатор : 16
Формат : UTF-8
Идентификатор кодека : S_TEXT/UTF8
Идентификатор кодека/Информация : UTF-8 Plain Text
Заголовок : Русские (Форсированные)
Язык : Russian
Default : Да
Forced : Нет

Текст #2
Идентификатор : 17
Формат : UTF-8
Идентификатор кодека : S_TEXT/UTF8
Идентификатор кодека/Информация : UTF-8 Plain Text
Заголовок : Русские
Язык : Russian
Default : Нет
Forced : Нет

Текст #3
Идентификатор : 18
Формат : UTF-8
Идентификатор кодека : S_TEXT/UTF8
Идентификатор кодека/Информация : UTF-8 Plain Text
Заголовок : Английские
Язык : English
Default : Нет
Forced : Нет

» Несколько главных сражений в фильме пришлось переснимать из-за того, что на статистах в кадре были замечены солнечные очки и наручные часы.

Скриншоты:


Аватара пользователя
Korsar
Помощник Администратора-Корсар
 
Месяцев на трекере: 5Месяцев на трекере: 5Месяцев на трекере: 5Месяцев на трекере: 5Месяцев на трекере: 5
 
Раздал: 260.63 ГБ
Зарегистрирован: 15 авг 2016, 14:15

  • Торрент
Автор: Korsar Хэш: ---
Добавлен: 04 янв 2017, 13:03 Приватный: Нет (DHT включён)
Статус: Проверен
Размер: 9.28 ГБ (9 966 043 184 байт)
Изменил: Korsar (04 янв 2017, 13:05)
Скачали: 593 (Раздающих: 2%)
Причина:
---
Здоровье: 100%
Сидеров: 14 Личеров: 0
Скорость раздачи: 0 байт/сек Скорость скачивания: 0 байт/сек
Последний сидер: 1 час 42 минуты 25 секунд назад Последний личер: Нет
Для скачивания торрента необходимо зарегистрироваться или войти на трекер.

Вернуться в Зарубежное кино (1991-2000)

cron
cron