logo
Международный русскоязычный
торрент-трекер
Menu

Магазин-KorsaRDoublon
Поделиться с друзьями: 
Голосуй за Корсар и получи 90 дублонов
Рейтинг торрент трекеров - UpTracker.ru

House of Pain - House of Pain - (1992, Hip-Hop) ALAC, lossless

Сообщение Korsar » 11 янв 2017, 22:44

House of Pain / House of Pain

Жанр: Hip-Hop
Носитель: CD
Страна-производитель диска: Canada
Год издания: 1992
Издатель (лейбл): Attic Records Limited
Номер по каталогу: ACDM 1359
Страна исполнителя (группы): USA
Аудио кодек: ALAC (*.m4a)
Тип рипа: tracks+.cue
Программа-конвертер: Собственный рип (EAC)
Битрейт аудио: lossless
Продолжительность: 00:50:31
Наличие сканов в содержимом раздачи: да
Тексты: вшиты
Источник : Собственный диск

Треклист:
01. Salutations
02. Jump around
03. Put your head out
04. Top o' the morning to ya
05. Commercial 1
06. House and the rising sun
07. Shamrocks and shenanigans
08. House of pain anthem
09. Danny Boy, Danny Boy
10. Guess who's back?
11. Commercial 2
12. Put on your shit Kickers
13. Come and get some of this
14. Life goes on
15. One for the road
16. Feel it
17. All my love!
18. Jump around (Pete Rock remix)
Код: Выделить всё
Exact Audio Copy V1.3 from 2. September 2016

Отчёт EAC об извлечении, выполненном 7. ноября 2016, 23:20

House of Pain / House of Pain

Дисковод: HL-DT-STDVDRAM GP60NB50   Adapter: 1  ID: 0

Режим чтения                 : Достоверность
Использование точного потока : Да
Отключение кэша аудио        : Да
Использование указателей C2  : Нет

Коррекция смещения при чтении                     : 6
Способность читать области Lead-in и Lead-out     : Нет
Заполнение пропущенных сэмплов тишиной            : Да
Удаление блоков с тишиной в начале и конце        : Нет
При вычислениях CRC использовались нулевые сэмплы : Да
Интерфейс                                         : Встроенный Win32-интерфейс для Win NT/2000
Обработка зазоров                                 : Добавлено к предыдущему треку

Выходной формат          : Пользовательский кодировщик
Выбранный битрейт        : 128 kBit/s
Качество                 : Высокий
Добавление ID3-тега      : Нет
Утилита сжатия           : C:\Users\Антон\Downloads\Архивы\qaac_2.60\qaac_2.60\x64\refalac64.exe
Дополнительные параметры : -s --ignorelength --artist "%artist%" --title "%title%" --album "%albumtitle%" --date "%year%" --track "%tracknr%" --genre "%genre%" -o %dest% %source%

TOC извлечённого CD

     Трек |   Старт  | Длительность | Начальный сектор | Конечный сектор
    ---------------------------------------------------------------------
       1  |  0:00.00 |    1:08.67   |           0      |       5166
       2  |  1:08.67 |    3:37.70   |        5167      |      21511
       3  |  4:46.62 |    3:02.08   |       21512      |      35169
       4  |  7:48.70 |    3:36.37   |       35170      |      51406
       5  | 11:25.32 |    0:07.65   |       51407      |      51996
       6  | 11:33.22 |    3:39.35   |       51997      |      68456
       7  | 15:12.57 |    3:38.13   |       68457      |      84819
       8  | 18:50.70 |    2:35.52   |       84820      |      96496
       9  | 21:26.47 |    1:54.23   |       96497      |     105069
      10  | 23:20.70 |    3:58.27   |      105070      |     122946
      11  | 27:19.22 |    0:21.03   |      122947      |     124524
      12  | 27:40.25 |    3:10.35   |      124525      |     138809
      13  | 30:50.60 |    2:50.25   |      138810      |     151584
      14  | 33:41.10 |    2:43.02   |      151585      |     163811
      15  | 36:24.12 |    2:50.15   |      163812      |     176576
      16  | 39:14.27 |    3:59.58   |      176577      |     194559
      17  | 43:14.10 |    3:20.50   |      194560      |     209609
      18  | 46:34.60 |    3:56.10   |      209610      |     227319

Трек  1

     Имя файла C:\Users\Антон\Downloads\Музыка\House of Pain - House of Pain (1992)\01 Salutations.wav

     Длина предзазора  0:00:02.00

     Пиковый уровень 93.0 %
     Скорость извлечения 1.9 X
     Качество трека 100.0 %
     CRC теста B0FE35A9
     CRC копии B0FE35A9
     Точное извлечение (достоверность 2)  [9B2C4F44]  (AR v2)
     Копирование... OK

Трек  2

     Имя файла C:\Users\Антон\Downloads\Музыка\House of Pain - House of Pain (1992)\02 Jump around.wav

     Пиковый уровень 94.6 %
     Скорость извлечения 2.7 X
     Качество трека 100.0 %
     CRC теста 993E5822
     CRC копии 993E5822
     Точное извлечение (достоверность 2)  [5604BA17]  (AR v2)
     Копирование... OK

Трек  3

     Имя файла C:\Users\Антон\Downloads\Музыка\House of Pain - House of Pain (1992)\03 Put your head out.wav

     Пиковый уровень 99.3 %
     Скорость извлечения 2.8 X
     Качество трека 100.0 %
     CRC теста 36C56998
     CRC копии 36C56998
     Точное извлечение (достоверность 2)  [BADACDB5]  (AR v2)
     Копирование... OK

Трек  4

     Имя файла C:\Users\Антон\Downloads\Музыка\House of Pain - House of Pain (1992)\04 Top o' the morning to ya.wav

     Пиковый уровень 88.5 %
     Скорость извлечения 3.1 X
     Качество трека 100.0 %
     CRC теста A8595B58
     CRC копии A8595B58
     Точное извлечение (достоверность 2)  [2936B0D3]  (AR v2)
     Копирование... OK

Трек  5

     Имя файла C:\Users\Антон\Downloads\Музыка\House of Pain - House of Pain (1992)\05 Commercial 1.wav

     Пиковый уровень 43.7 %
     Скорость извлечения 0.2 X
     Качество трека 100.0 %
     CRC теста BE492655
     CRC копии BE492655
     Точное извлечение (достоверность 2)  [5072BE0E]  (AR v2)
     Копирование... OK

Трек  6

     Имя файла C:\Users\Антон\Downloads\Музыка\House of Pain - House of Pain (1992)\06 House and the rising sun.wav

     Пиковый уровень 93.7 %
     Скорость извлечения 2.3 X
     Качество трека 99.9 %
     CRC теста 44DF10C5
     CRC копии 44DF10C5
     Точное извлечение (достоверность 2)  [3AD81126]  (AR v2)
     Копирование... OK

Трек  7

     Имя файла C:\Users\Антон\Downloads\Музыка\House of Pain - House of Pain (1992)\07 Shamrocks and shenanigans.wav

     Пиковый уровень 86.4 %
     Скорость извлечения 3.6 X
     Качество трека 100.0 %
     CRC теста B91C9F60
     CRC копии B91C9F60
     Точное извлечение (достоверность 2)  [14FFF2F0]  (AR v2)
     Копирование... OK

Трек  8

     Имя файла C:\Users\Антон\Downloads\Музыка\House of Pain - House of Pain (1992)\08 House of pain anthem.wav

     Пиковый уровень 95.7 %
     Скорость извлечения 2.9 X
     Качество трека 99.9 %
     CRC теста 639BD2AB
     CRC копии 639BD2AB
     Точное извлечение (достоверность 2)  [676C8013]  (AR v2)
     Копирование... OK

Трек  9

     Имя файла C:\Users\Антон\Downloads\Музыка\House of Pain - House of Pain (1992)\09 Danny Boy, Danny Boy.wav

     Пиковый уровень 99.9 %
     Скорость извлечения 3.3 X
     Качество трека 100.0 %
     CRC теста D6968202
     CRC копии D6968202
     Точное извлечение (достоверность 2)  [32CDA8B0]  (AR v2)
     Копирование... OK

Трек 10

     Имя файла C:\Users\Антон\Downloads\Музыка\House of Pain - House of Pain (1992)\10 Guess who's back.wav

     Пиковый уровень 98.7 %
     Скорость извлечения 3.1 X
     Качество трека 99.9 %
     CRC теста C68C4444
     CRC копии C68C4444
     Точное извлечение (достоверность 2)  [069F0A71]  (AR v2)
     Копирование... OK

Трек 11

     Имя файла C:\Users\Антон\Downloads\Музыка\House of Pain - House of Pain (1992)\11 Commercial 2.wav

     Пиковый уровень 35.7 %
     Скорость извлечения 0.7 X
     Качество трека 100.0 %
     CRC теста F1B11EB9
     CRC копии F1B11EB9
     Точное извлечение (достоверность 2)  [508C0B81]  (AR v2)
     Копирование... OK

Трек 12

     Имя файла C:\Users\Антон\Downloads\Музыка\House of Pain - House of Pain (1992)\12 Put on your shit Kickers.wav

     Пиковый уровень 99.1 %
     Скорость извлечения 1.7 X
     Качество трека 100.0 %
     CRC теста A26514D9
     CRC копии A26514D9
     Точное извлечение (достоверность 2)  [C530188D]  (AR v2)
     Копирование... OK

Трек 13

     Имя файла C:\Users\Антон\Downloads\Музыка\House of Pain - House of Pain (1992)\13 Come and get some of this.wav

     Пиковый уровень 86.1 %
     Скорость извлечения 1.5 X
     Качество трека 99.9 %
     CRC теста 40C7D3DF
     CRC копии 40C7D3DF
     Точное извлечение (достоверность 2)  [0B28C7C4]  (AR v2)
     Копирование... OK

Трек 14

     Имя файла C:\Users\Антон\Downloads\Музыка\House of Pain - House of Pain (1992)\14 Life goes on.wav

     Пиковый уровень 92.2 %
     Скорость извлечения 1.5 X
     Качество трека 99.9 %
     CRC теста 891EDA54
     CRC копии 891EDA54
     Точное извлечение (достоверность 2)  [8329FC53]  (AR v2)
     Копирование... OK

Трек 15

     Имя файла C:\Users\Антон\Downloads\Музыка\House of Pain - House of Pain (1992)\15 One for the road.wav

     Пиковый уровень 87.1 %
     Скорость извлечения 1.8 X
     Качество трека 100.0 %
     CRC теста 6B4C508C
     CRC копии 6B4C508C
     Точное извлечение (достоверность 2)  [7AA7F57E]  (AR v2)
     Копирование... OK

Трек 16

     Имя файла C:\Users\Антон\Downloads\Музыка\House of Pain - House of Pain (1992)\16 Feel it.wav

     Пиковый уровень 82.6 %
     Скорость извлечения 2.0 X
     Качество трека 100.0 %
     CRC теста 269B3EFF
     CRC копии 269B3EFF
     Точное извлечение (достоверность 2)  [2378F3D7]  (AR v2)
     Копирование... OK

Трек 17

     Имя файла C:\Users\Антон\Downloads\Музыка\House of Pain - House of Pain (1992)\17 All my love!.wav

     Пиковый уровень 75.4 %
     Скорость извлечения 2.0 X
     Качество трека 100.0 %
     CRC теста EE20087E
     CRC копии EE20087E
     Точное извлечение (достоверность 2)  [424942F3]  (AR v2)
     Копирование... OK

Трек 18

     Имя файла C:\Users\Антон\Downloads\Музыка\House of Pain - House of Pain (1992)\18 Jump around (Pete Rock remix).wav

     Пиковый уровень 100.0 %
     Скорость извлечения 2.2 X
     Качество трека 100.0 %
     CRC теста BB02ED39
     CRC копии BB02ED39
     Точное извлечение (достоверность 2)  [AB958279]  (AR v2)
     Копирование... OK

Все треки извлечены точно

Ошибок не произошло

Конец отчёта

---- CUETools DB Plugin V2.1.6

[CTDB TOCID: TbRoZtywgDKAi4Lqq6oVrRBqF2M-] found
Submit result: TbRoZtywgDKAi4Lqq6oVrRBqF2M- has been confirmed
Track | CTDB Status
  1   | (12/18) Accurately ripped
  2   | (16/18) Accurately ripped
  3   | (16/18) Accurately ripped
  4   | (15/18) Accurately ripped
  5   | (18/18) Accurately ripped
  6   | (16/18) Accurately ripped
  7   | (18/18) Accurately ripped
  8   | (18/18) Accurately ripped
  9   | (18/18) Accurately ripped
 10   | (17/18) Accurately ripped
 11   | (18/18) Accurately ripped
 12   | (18/18) Accurately ripped
 13   | (18/18) Accurately ripped
 14   | (17/18) Accurately ripped
 15   | (17/18) Accurately ripped
 16   | (18/18) Accurately ripped
 17   | (18/18) Accurately ripped
 18   | (16/18) Accurately ripped

==== Контрольная сумма отчёта BB3CA7AB95B0956FC47F39887BF84EDC4D22FE428CE49A9EFB40F75C284BC037 ====
Код: Выделить всё
REM GENRE Hip-Hop
REM DATE 1992
REM DISCID 000BD612
REM COMMENT "ExactAudioCopy v1.3"
CATALOG 0000000000000
PERFORMER "House of Pain"
TITLE "House of Pain"
REM COMPOSER ""
FILE "01 Salutations.wav" WAVE
  TRACK 01 AUDIO
    TITLE "Salutations"
    PERFORMER "House of Pain"
    REM COMPOSER ""
    INDEX 01 00:00:00
FILE "02 Jump around.wav" WAVE
  TRACK 02 AUDIO
    TITLE "Jump around"
    PERFORMER "House of Pain"
    REM COMPOSER ""
    INDEX 01 00:00:00
FILE "03 Put your head out.wav" WAVE
  TRACK 03 AUDIO
    TITLE "Put your head out"
    PERFORMER "House of Pain"
    REM COMPOSER ""
    INDEX 01 00:00:00
FILE "04 Top o' the morning to ya.wav" WAVE
  TRACK 04 AUDIO
    TITLE "Top o' the morning to ya"
    PERFORMER "House of Pain"
    REM COMPOSER ""
    INDEX 01 00:00:00
FILE "05 Commercial 1.wav" WAVE
  TRACK 05 AUDIO
    TITLE "Commercial 1"
    PERFORMER "House of Pain"
    REM COMPOSER ""
    INDEX 01 00:00:00
FILE "06 House and the rising sun.wav" WAVE
  TRACK 06 AUDIO
    TITLE "House and the rising sun"
    PERFORMER "House of Pain"
    REM COMPOSER ""
    INDEX 01 00:00:00
FILE "07 Shamrocks and shenanigans.wav" WAVE
  TRACK 07 AUDIO
    TITLE "Shamrocks and shenanigans"
    PERFORMER "House of Pain"
    REM COMPOSER ""
    INDEX 01 00:00:00
FILE "08 House of pain anthem.wav" WAVE
  TRACK 08 AUDIO
    TITLE "House of pain anthem"
    PERFORMER "House of Pain"
    REM COMPOSER ""
    INDEX 01 00:00:00
FILE "09 Danny Boy, Danny Boy.wav" WAVE
  TRACK 09 AUDIO
    TITLE "Danny Boy, Danny Boy"
    PERFORMER "House of Pain"
    REM COMPOSER ""
    INDEX 01 00:00:00
FILE "10 Guess who's back.wav" WAVE
  TRACK 10 AUDIO
    TITLE "Guess who's back?"
    PERFORMER "House of Pain"
    REM COMPOSER ""
    INDEX 01 00:00:00
FILE "11 Commercial 2.wav" WAVE
  TRACK 11 AUDIO
    TITLE "Commercial 2"
    PERFORMER "House of Pain"
    REM COMPOSER ""
    INDEX 01 00:00:00
FILE "12 Put on your shit Kickers.wav" WAVE
  TRACK 12 AUDIO
    TITLE "Put on your shit Kickers"
    PERFORMER "House of Pain"
    REM COMPOSER ""
    INDEX 01 00:00:00
FILE "13 Come and get some of this.wav" WAVE
  TRACK 13 AUDIO
    TITLE "Come and get some of this"
    PERFORMER "House of Pain"
    REM COMPOSER ""
    INDEX 01 00:00:00
FILE "14 Life goes on.wav" WAVE
  TRACK 14 AUDIO
    TITLE "Life goes on"
    PERFORMER "House of Pain"
    REM COMPOSER ""
    INDEX 01 00:00:00
FILE "15 One for the road.wav" WAVE
  TRACK 15 AUDIO
    TITLE "One for the road"
    PERFORMER "House of Pain"
    REM COMPOSER ""
    INDEX 01 00:00:00
FILE "16 Feel it.wav" WAVE
  TRACK 16 AUDIO
    TITLE "Feel it"
    PERFORMER "House of Pain"
    REM COMPOSER ""
    INDEX 01 00:00:00
FILE "17 All my love!.wav" WAVE
  TRACK 17 AUDIO
    TITLE "All my love!"
    PERFORMER "House of Pain"
    REM COMPOSER ""
    INDEX 01 00:00:00
FILE "18 Jump around (Pete Rock remix).wav" WAVE
  TRACK 18 AUDIO
    TITLE "Jump around (Pete Rock remix)"
    PERFORMER "House of Pain"
    REM COMPOSER ""
    INDEX 01 00:00:00
Код: Выделить всё
CUE Corrector v. 8.2.2 / b. 702 (Oct. 28, 2016)
————————————————————————————————————————————————————————————————————————
--- / House of Pain

Folder: House of Pain - House of Pain (1992)
Audio files:
    01 Salutations.m4a [01:08.67; ALAC • 884 kbps • 16 bit \ 44100 Hz • stereo; 7,27 MB (7 621 984 bytes)]
    02 Jump around.m4a [03:37.70; ALAC • 977 kbps • 16 bit \ 44100 Hz • stereo; 25,41 MB (26 640 486 bytes)]
    03 Put your head out.m4a [03:02.08; ALAC • 849 kbps • 16 bit \ 44100 Hz • stereo; 18,44 MB (19 338 693 bytes)]
    04 Top o' the morning to ya.m4a [03:36.37; ALAC • 806 kbps • 16 bit \ 44100 Hz • stereo; 20,82 MB (21 829 651 bytes)]
    05 Commercial 1.m4a [00:07.65; ALAC • 720 kbps • 16 bit \ 44100 Hz • stereo; 693,91 KB (710 567 bytes)]
    06 House and the rising sun.m4a [03:39.35; ALAC • 897 kbps • 16 bit \ 44100 Hz • stereo; 23,49 MB (24 633 578 bytes)]
    07 Shamrocks and shenanigans.m4a [03:38.13; ALAC • 813 kbps • 16 bit \ 44100 Hz • stereo; 21,18 MB (22 210 891 bytes)]
    08 House of pain anthem.m4a [02:35.52; ALAC • 856 kbps • 16 bit \ 44100 Hz • stereo; 15,91 MB (16 682 578 bytes)]
    09 Danny Boy, Danny Boy.m4a [01:54.23; ALAC • 864 kbps • 16 bit \ 44100 Hz • stereo; 11,79 MB (12 366 822 bytes)]
    10 Guess who's back.m4a [03:58.27; ALAC • 932 kbps • 16 bit \ 44100 Hz • stereo; 26,51 MB (27 794 183 bytes)]
    11 Commercial 2.m4a [00:21.03; ALAC • 710 kbps • 16 bit \ 44100 Hz • stereo; 1,78 MB (1 870 901 bytes)]
    12 Put on your shit Kickers.m4a [03:10.35; ALAC • 946 kbps • 16 bit \ 44100 Hz • stereo; 21,51 MB (22 552 197 bytes)]
    13 Come and get some of this.m4a [02:50.25; ALAC • 850 kbps • 16 bit \ 44100 Hz • stereo; 17,27 MB (18 108 932 bytes)]
    14 Life goes on.m4a [02:43.02; ALAC • 774 kbps • 16 bit \ 44100 Hz • stereo; 15,07 MB (15 802 125 bytes)]
    15 One for the road.m4a [02:50.15; ALAC • 854 kbps • 16 bit \ 44100 Hz • stereo; 17,34 MB (18 180 362 bytes)]
    16 Feel it.m4a [03:59.58; ALAC • 792 kbps • 16 bit \ 44100 Hz • stereo; 22,66 MB (23 765 483 bytes)]
    17 All my love!.m4a [03:20.50; ALAC • 717 kbps • 16 bit \ 44100 Hz • stereo; 17,18 MB (18 015 767 bytes)]
    18 Jump around (Pete Rock remix).m4a [03:56.10; ALAC • 930 kbps • 16 bit \ 44100 Hz • stereo; 26,19 MB (27 464 576 bytes)]

Accuracy: -m8

File 01 Salutations                   - 100% CDDA [01:08.67]

  Detected average hi-boundary frequency      :  2.004812e+004 Hz
  Detected average lo-boundary frequency      :  1.289497e+004 Hz
  Detected average hi-cut frequency           :  2.179268e+004 Hz
  Detected average lo-cut frequency           :  1.584655e+004 Hz
  Maximum probablis boundary frequency        :  2.184300e+004 Hz
  Coefficient of nonlinearity of a phase      :  1.153317e+000
  First order smothness                       :  4.390244e-001
  Second order smothness                      :  3.780488e-001

File 02 Jump around                   - 100% CDDA [03:37.70]

  Detected average hi-boundary frequency      :  2.120583e+004 Hz
  Detected average lo-boundary frequency      :  1.608499e+004 Hz
  Detected average hi-cut frequency           :  2.191598e+004 Hz
  Detected average lo-cut frequency           :  2.088433e+004 Hz
  Maximum probablis boundary frequency        :  2.189100e+004 Hz
  Coefficient of nonlinearity of a phase      :  1.282887e+000
  First order smothness                       :  4.597701e-001
  Second order smothness                      :  8.467433e-001

File 03 Put your head out             - 100% CDDA [03:02.08]

  Detected average hi-boundary frequency      :  2.062665e+004 Hz
  Detected average lo-boundary frequency      :  1.195920e+004 Hz
  Detected average hi-cut frequency           :  2.183324e+004 Hz
  Detected average lo-cut frequency           :  1.710148e+004 Hz
  Maximum probablis boundary frequency        :  2.175700e+004 Hz
  Coefficient of nonlinearity of a phase      :  7.795006e-001
  First order smothness                       :  3.853211e-001
  Second order smothness                      :  6.743119e-001

File 04 Top o' the morning to ya      - 100% CDDA [03:36.37]

  Detected average hi-boundary frequency      :  2.035963e+004 Hz
  Detected average lo-boundary frequency      :  1.440521e+004 Hz
  Detected average hi-cut frequency           :  2.165231e+004 Hz
  Detected average lo-cut frequency           :  1.372899e+004 Hz
  Maximum probablis boundary frequency        :  2.171900e+004 Hz
  Coefficient of nonlinearity of a phase      :  1.782744e-001
  First order smothness                       :  4.555985e-001
  Second order smothness                      :  5.791506e-001

File 05 Commercial 1                  - 100% CDDA [00:07.65]

  Detected average hi-boundary frequency      :  2.036030e+004 Hz
  Detected average lo-boundary frequency      :  1.240800e+004 Hz
  Detected average hi-cut frequency           :  2.153160e+004 Hz
  Detected average lo-cut frequency           :  1.622600e+004 Hz
  Maximum probablis boundary frequency        :  2.194000e+004 Hz
  Coefficient of nonlinearity of a phase      :  1.092040e+000
  First order smothness                       :  3.000000e-001
  Second order smothness                      :  9.000000e-001

File 06 House and the rising sun      - 100% CDDA [03:39.35]

  Detected average hi-boundary frequency      :  2.064673e+004 Hz
  Detected average lo-boundary frequency      :  1.392240e+004 Hz
  Detected average hi-cut frequency           :  2.177863e+004 Hz
  Detected average lo-cut frequency           :  1.386615e+004 Hz
  Maximum probablis boundary frequency        :  2.189100e+004 Hz
  Coefficient of nonlinearity of a phase      :  7.731416e-001
  First order smothness                       :  5.475285e-001
  Second order smothness                      :  4.562738e-001

File 07 Shamrocks and shenanigans     -  99% CDDA [03:38.13]

  Detected average hi-boundary frequency      :  2.055811e+004 Hz
  Detected average lo-boundary frequency      :  1.381452e+004 Hz
  Detected average hi-cut frequency           :  2.184047e+004 Hz
  Detected average lo-cut frequency           :  1.097142e+004 Hz
  Maximum probablis boundary frequency        :  2.189100e+004 Hz
  Coefficient of nonlinearity of a phase      :  8.929103e-001
  First order smothness                       :  4.750958e-001
  Second order smothness                      :  3.639847e-001

File 08 House of pain anthem          - 100% CDDA [02:35.52]

  Detected average hi-boundary frequency      :  2.036836e+004 Hz
  Detected average lo-boundary frequency      :  1.466302e+004 Hz
  Detected average hi-cut frequency           :  2.167247e+004 Hz
  Detected average lo-cut frequency           :  1.256982e+004 Hz
  Maximum probablis boundary frequency        :  2.189100e+004 Hz
  Coefficient of nonlinearity of a phase      :  8.886731e-001
  First order smothness                       :  4.545455e-001
  Second order smothness                      :  5.668449e-001

File 09 Danny Boy, Danny Boy          - 100% CDDA [01:54.23]

  Detected average hi-boundary frequency      :  2.073976e+004 Hz
  Detected average lo-boundary frequency      :  1.472713e+004 Hz
  Detected average hi-cut frequency           :  2.181985e+004 Hz
  Detected average lo-cut frequency           :  1.708524e+004 Hz
  Maximum probablis boundary frequency        :  2.189100e+004 Hz
  Coefficient of nonlinearity of a phase      :  2.093858e-001
  First order smothness                       :  4.890511e-001
  Second order smothness                      :  6.277372e-001

File 10 Guess who's back              -  99% CDDA [03:58.27]

  Detected average hi-boundary frequency      :  2.086494e+004 Hz
  Detected average lo-boundary frequency      :  1.432173e+004 Hz
  Detected average hi-cut frequency           :  2.190987e+004 Hz
  Detected average lo-cut frequency           :  1.983835e+004 Hz
  Maximum probablis boundary frequency        :  2.189100e+004 Hz
  Coefficient of nonlinearity of a phase      :  1.171379e+000
  First order smothness                       :  4.335664e-001
  Second order smothness                      :  8.286713e-001

File 11 Commercial 2                  - 100% CDDA [00:21.03]

  Detected average hi-boundary frequency      :  1.972700e+004 Hz
  Detected average lo-boundary frequency      :  1.131727e+004 Hz
  Detected average hi-cut frequency           :  2.156392e+004 Hz
  Detected average lo-cut frequency           :  1.677417e+004 Hz
  Maximum probablis boundary frequency        :  2.156300e+004 Hz
  Coefficient of nonlinearity of a phase      :  1.621615e+000
  First order smothness                       :  4.230769e-001
  Second order smothness                      :  8.846154e-001

File 12 Put on your shit Kickers      - 100% CDDA [03:10.35]

  Detected average hi-boundary frequency      :  2.075521e+004 Hz
  Detected average lo-boundary frequency      :  1.543586e+004 Hz
  Detected average hi-cut frequency           :  2.190366e+004 Hz
  Detected average lo-cut frequency           :  1.898731e+004 Hz
  Maximum probablis boundary frequency        :  2.189600e+004 Hz
  Coefficient of nonlinearity of a phase      :  6.205797e-001
  First order smothness                       :  4.649123e-001
  Second order smothness                      :  7.192982e-001

File 13 Come and get some of this     - 100% CDDA [02:50.25]

  Detected average hi-boundary frequency      :  2.075456e+004 Hz
  Detected average lo-boundary frequency      :  1.322219e+004 Hz
  Detected average hi-cut frequency           :  2.185561e+004 Hz
  Detected average lo-cut frequency           :  1.824783e+004 Hz
  Maximum probablis boundary frequency        :  2.189100e+004 Hz
  Coefficient of nonlinearity of a phase      :  1.094798e+000
  First order smothness                       :  3.921569e-001
  Second order smothness                      :  7.549020e-001

File 14 Life goes on                  -  99% CDDA [02:43.02]

  Detected average hi-boundary frequency      :  2.022060e+004 Hz
  Detected average lo-boundary frequency      :  1.152299e+004 Hz
  Detected average hi-cut frequency           :  2.186308e+004 Hz
  Detected average lo-cut frequency           :  1.154646e+004 Hz
  Maximum probablis boundary frequency        :  2.192300e+004 Hz
  Coefficient of nonlinearity of a phase      :  1.419845e+000
  First order smothness                       :  3.571429e-001
  Second order smothness                      :  5.255102e-001

File 15 One for the road              - 100% CDDA [02:50.15]

  Detected average hi-boundary frequency      :  2.060515e+004 Hz
  Detected average lo-boundary frequency      :  1.420929e+004 Hz
  Detected average hi-cut frequency           :  2.171384e+004 Hz
  Detected average lo-cut frequency           :  1.581923e+004 Hz
  Maximum probablis boundary frequency        :  2.180500e+004 Hz
  Coefficient of nonlinearity of a phase      :  6.165019e-001
  First order smothness                       :  3.872549e-001
  Second order smothness                      :  6.813725e-001

File 16 Feel it                       -  99% CDDA [03:59.58]

  Detected average hi-boundary frequency      :  2.000397e+004 Hz
  Detected average lo-boundary frequency      :  1.275103e+004 Hz
  Detected average hi-cut frequency           :  2.190609e+004 Hz
  Detected average lo-cut frequency           :  1.774403e+004 Hz
  Maximum probablis boundary frequency        :  2.189600e+004 Hz
  Coefficient of nonlinearity of a phase      :  6.657752e-001
  First order smothness                       :  4.459930e-001
  Second order smothness                      :  6.132404e-001

File 17 All my love!                  - 100% CDDA [03:20.50]

  Detected average hi-boundary frequency      :  2.036651e+004 Hz
  Detected average lo-boundary frequency      :  1.497335e+004 Hz
  Detected average hi-cut frequency           :  2.170427e+004 Hz
  Detected average lo-cut frequency           :  1.325908e+004 Hz
  Maximum probablis boundary frequency        :  2.189100e+004 Hz
  Coefficient of nonlinearity of a phase      :  4.348542e-001
  First order smothness                       :  4.813278e-001
  Second order smothness                      :  5.933610e-001

File 18 Jump around (Pete Rock remix) - 100% CDDA [03:56.10]

  Detected average hi-boundary frequency      :  2.055932e+004 Hz
  Detected average lo-boundary frequency      :  1.368526e+004 Hz
  Detected average hi-cut frequency           :  2.179604e+004 Hz
  Detected average lo-cut frequency           :  1.869015e+004 Hz
  Maximum probablis boundary frequency        :  2.124000e+004 Hz
  Coefficient of nonlinearity of a phase      :  1.212267e+000
  First order smothness                       :  3.758865e-001
  Second order smothness                      :  7.056738e-001

————— Summary: —————
These tracks looks like CDDA with probability 100%.
————————————————————————————————————————————————————————————————————————

ANALYZER:
    auCDtect: CD records authenticity detector, version 0.8.2
    Copyright (c) 2004 Oleg Berngardt. All rights reserved.
    Copyright (c) 2004 Alexander Djourik. All rights reserved.

Time elapsed: 29.5 s
Log created at November 08, 2016 12:20:21

=== 8755C8C7A7E923F498C298DC7E72D9491827DC660541814271ACDCE6782ECD72 ===

Боцман
Аватара пользователя
Korsar
Помощник Администратора-Корсар
 
 

Награды: 18
За помощь проекту (1) За отличные раздачи и качество (8) Верный Сид (6) За участие в конкурсах (2)
  • Торрент
Для скачивания торрента необходимо зарегистрироваться или войти на трекер.

Вернуться в Зарубежный (Lossless)



Uptime по данным Ping-Admin.Ru - сервиса мониторинга доступности сайтов