logo
Международный русскоязычный
торрент-трекер
Menu
"Бунт на корабле", за скачанные торрент-файлы дублоны не снимаются. Возможность оплачена пользователем filbi1976.
Doublon
Поделиться с друзьями: 
Голосуй за Корсар и получи 500 дублонов
Рейтинг торрент трекеров - UpTracker.ru

Хороший динозавр / The Good Dinosaur (2015, Мультфильм, полнометражный, фэнтези, комедия, приключения, семейный, UHD BDRemux 2160p) | HDR | Лицензия

Сообщение al1ksandr » 10 сен 2019, 23:49

Название: Хороший динозавр
Оригинальное название: The Good Dinosaur
Год выхода: 2015
Жанр: Мультфильм, полнометражный, фэнтези, комедия, приключения, семейный
Режиссер: Питер Сон
В ролях: Джеффри Райт, Фрэнсис МакДорманд, Малиа Нипай-Падилья, Райан Типл, Джек МакГроу, Маркус Скрибнер, Рэймонд Очоа, Джек Брайт, Питер Сон, Стив Зан, Мэнди Фройнд, Стивен Клэй Хантер, А.Дж. Бакли, Анна Пакуин, Сэм Эллиотт, Дэвид Боат, Кэрри Пафф, Кэлам Грант, Джон Ратценбергер

О фильме: Представьте, что астероид, некогда навсегда изменивший жизнь на Земле, пролетел мимо нашей планеты и гигантские динозавры существуют по сей день — они далеко обогнали в развитии первобытных людей и создали собственную цивилизацию. Именно там возникла история невероятной дружбы юного бронтозавра Арло и маленького мальчика по имени Дружок. Этим на первый взгляд непохожим героям предстоит вместе совершить опасное путешествие в далекие и таинственные края, научиться бороться со своими страхами и понять, что они не так уж и отличаются друг от друга.



Страна: США
Студия: Walt Disney Pictures, Pixar Animation Studios
Продолжительность: 01:33:50
Перевод: Дублированный | Лицензия

Качество: BDRemux 2160p
Видео: 3840x2160 at 23.976 fps, MPEG-H HEVC HDR Video, 55400 kbps avg
Аудио #01: 48 kHz, AC3, 5.1, 640 Kbps | Лицензия | RUS |
Аудио #02: 48 kHz, TrueHD, 7.1, 6336 Kbps | Оригинал | ENG |
Аудио #03: 48 kHz, AC3, 5.1, 640 Kbps | Оригинал | ENG |
Субтитры: Русские (Full), английские


General
Unique ID : 161620152913367682253943109603434250700 (0x7996E8C211317AD1EFCA041EBC0941CC)
Complete name : D:Video111The.Good.Dinosaur.2015.BDREMUX.2160p.HDR.seleZen.mkv
Format : Matroska
Format version : Version 4
File size : 41.4 GiB
Duration : 1 h 33 min
Overall bit rate mode : Variable
Overall bit rate : 63.1 Mb/s
Movie name : The Good Dinosaur 2015 from селезень
Encoded date : UTC 2019-09-10 18:42:13
Writing application : mkvmerge v22.0.0 ('At The End Of The World') 64-bit
Writing library : libebml v1.3.5 + libmatroska v1.4.8

Video
ID : 1
Format : HEVC
Format/Info : High Efficiency Video Coding
Format profile : Main 10@L5.1@High
HDR format : SMPTE ST 2086, HDR10 compatible
Codec ID : V_MPEGH/ISO/HEVC
Duration : 1 h 33 min
Bit rate : 55.4 Mb/s
Width : 3 840 pixels
Height : 2 160 pixels
Display aspect ratio : 16:9
Frame rate mode : Constant
Frame rate : 23.976 (24000/1001) FPS
Color space : YUV
Chroma subsampling : 4:2:0 (Type 2)
Bit depth : 10 bits
Bits/(Pixel*Frame) : 0.279
Stream size : 36.3 GiB (88%)
Writing library : ATEME Titan File 3.9.0 (4.9.0.0)
Language : English
Default : Yes
Forced : No
Color range : Limited
Color primaries : BT.2020
Transfer characteristics : PQ
Matrix coefficients : BT.2020 non-constant
Mastering display color pri : Display P3
Mastering display luminance : min: 0.0000 cd/m2, max: 1000 cd/m2

Audio #1
ID : 2
Format : AC-3
Format/Info : Audio Coding 3
Commercial name : Dolby Digital
Codec ID : A_AC3
Duration : 1 h 33 min
Bit rate mode : Constant
Bit rate : 640 kb/s
Channel(s) : 6 channels
Channel layout : L R C LFE Ls Rs
Sampling rate : 48.0 kHz
Frame rate : 31.250 FPS (1536 SPF)
Bit depth : 16 bits
Compression mode : Lossy
Stream size : 430 MiB (1%)
Title : Dub [License]
Language : Russian
Service kind : Complete Main
Default : Yes
Forced : Yes

Audio #2
ID : 3
Format : MLP FBA 16-ch
Format/Info : Meridian Lossless Packing FBA with 16-channel presentation
Commercial name : Dolby TrueHD with Dolby Atmos
Codec ID : A_TRUEHD
Duration : 1 h 33 min
Bit rate mode : Variable
Bit rate : 6 336 kb/s
Maximum bit rate : 8 292 kb/s
Channel(s) : 8 channels
Channel layout : L R C LFE Ls Rs Lb Rb
Sampling rate : 48.0 kHz
Frame rate : 1 200.000 FPS (40 SPF)
Compression mode : Lossless
Stream size : 4.15 GiB (10%)
Title : Original
Language : English
Default : No
Forced : No
Number of dynamic objects : 13
Bed channel count : 1 channel
Bed channel configuration : LFE

Audio #3
ID : 4
Format : AC-3
Format/Info : Audio Coding 3
Commercial name : Dolby Digital
Codec ID : A_AC3
Duration : 1 h 33 min
Bit rate mode : Constant
Bit rate : 640 kb/s
Channel(s) : 6 channels
Channel layout : L R C LFE Ls Rs
Sampling rate : 48.0 kHz
Frame rate : 31.250 FPS (1536 SPF)
Bit depth : 16 bits
Compression mode : Lossy
Stream size : 429 MiB (1%)
Language : English
Service kind : Complete Main
Default : No
Forced : No

Text #1
ID : 5
Format : UTF-8
Codec ID : S_TEXT/UTF8
Codec ID/Info : UTF-8 Plain Text
Duration : 1 h 24 min
Bit rate : 37 b/s
Count of elements : 480
Stream size : 22.8 KiB (0%)
Title : Full
Language : Russian
Default : No
Forced : No

Text #2
ID : 6
Format : UTF-8
Codec ID : S_TEXT/UTF8
Codec ID/Info : UTF-8 Plain Text
Duration : 1 h 23 min
Bit rate : 31 b/s
Count of elements : 885
Stream size : 19.6 KiB (0%)
Title : SDH
Language : English
Default : No
Forced : No

Menu
00:00:00.000 : en:00:00:00.000
00:03:37.968 : en:00:03:37.968
00:06:16.459 : en:00:06:16.459
00:08:14.160 : en:00:08:14.160
00:12:12.607 : en:00:12:12.607
00:14:33.915 : en:00:14:33.915
00:17:42.353 : en:00:17:42.353
00:21:10.644 : en:00:21:10.644
00:22:58.168 : en:00:22:58.168
00:26:41.058 : en:00:26:41.058
00:29:02.616 : en:00:29:02.616
00:33:10.363 : en:00:33:10.363
00:35:28.668 : en:00:35:28.668
00:38:14.459 : en:00:38:14.459
00:41:08.841 : en:00:41:08.841
00:45:42.949 : en:00:45:42.949
00:47:47.948 : en:00:47:47.948
00:51:48.272 : en:00:51:48.272
00:55:46.969 : en:00:55:46.969
01:00:22.953 : en:01:00:22.953
01:03:59.002 : en:01:03:59.002
01:05:27.215 : en:01:05:27.215
01:07:11.778 : en:01:07:11.778
01:11:06.429 : en:01:11:06.429
01:13:43.377 : en:01:13:43.377
01:16:01.432 : en:01:16:01.432
01:19:08.494 : en:01:19:08.494
01:23:56.865 : en:01:23:56.865
01:26:01.114 : en:01:26:01.114


Релиз от:
КУБКИ

СТАЖ

МЕДАЛИ
Награды:66

За помощь проекту (2) Лучший по количеству кубков (15) За отличные раздачи и качество (5) За отличные комментарии (13) Почётный форумчанин (26) Верный Сид (1) За участие в конкурсах/играх (2)

Аватара пользователя
СССР
al1ksandr
Опытный Модератор-Корсар
  • Торрент
Для скачивания торрента необходимо зарегистрироваться или войти на трекер.

Вернуться в Мультфильмы (UHD 4K)



Uptime по данным Ping-Admin.Ru - сервиса мониторинга доступности сайтов
Рейтинг@Mail.ru