logo
Международный русскоязычный
торрент-трекер
Menu

Магазин-KorsaRDoublon

Поделиться с друзьями: 
Голосуй и получи дублоны
Рейтинг торрент трекеров - UpTracker.ru

Ходячий замок / Hauru no ugoku shiro (2004, мультфильм, фантастика, фэнтези, мелодрама, приключения, BDRip 1080p)

Сообщение Korsar » 22 окт 2016, 23:56

#777

Информация о фильме
Название: Ходячий замок
Оригинальное название: Hauru no ugoku shiro
Год выхода: 2004
Жанр: мультфильм, фантастика, фэнтези, мелодрама, приключения
Режиссер: Хаяо Миядзаки
В ролях: Тиэко Байсё, Такуя Кимура, Акихиро Мива, Тацуя Гасюин, Рюноскэ Камики, Мицунори Исаки, Ё Ойзуми, Акио Ютсука, Дайдзиро Харада, Харуко Като

О фильме: Злая ведьма заточила 18-летнюю Софи в тело старухи. В поисках того, кто поможет ей вернуться к своему облику, Софи знакомится с могущественным волшебником Хаулом и его демоном Кальцифером. Кальцифер должен служить Хаулу по договору, условия которого он не может разглашать. Девушка и демон решают помочь друг другу избавиться от злых чар…

• Мультфильм «Ходячий замок» создан по мотивам сказочной повести английской писательницы Дианы Уинн Джонс.
• Перед началом съемок команда аниматоров путешествовала по Европе в поисках подходящих пейзажей для картины. Они нашли их в восточной провинции Эльзас во Франции.
• По словам режиссера мультфильма Хайао Миядзаки, прообразом ходячего замка послужила избушка на курьих ножках из русских сказок.
• Дословный перевод оригинального названия - «Ходячий замок Хаула».
• Первоначально фильм должен был снимать Хосода Мамору, однако вместо него делать это пришлось Миядзаки.
• Прежде чем состоялся национальный релиз в Японии, «Ходячий замок» был показан на 61-м Венецианском Международном Кинофестивале в 2004 г. Это была первая японская анимация, когда-либо открывавшая фестиваль. Картина получила приз — «Золотую Озеллу».




Выпущено: Studio Ghibli
Продолжительность: 01:59:09
Перевод: Дублированный

Файл
Кодек: x264
Качество: BDRip (источник: Blu-ray Disc)
Видео: 1920x1032 (1,860), 23.976 fps, 4133 kbps
Аудио #1: AC-3, 2 ch, 224 kbps (Rus)
Аудио #2: AC-3, 6 ch, 448 kbps (Eng)
Аудио #3: AC-3, 6 ch, 448 kbps (Jpn)
Субтитры: Русские, Английские
Скачать: сэмпл



Общее
Уникальный идентификатор : 175073044790612680113671725735368861569 (0x83B5D7897E3EA5C18CF3E7F9634A2781)
Полное имя : Hauru.no.Ugoku.Shiro.2004.BDRip.1080p.Rus.Eng.Jpn.mkv
Формат : Matroska
Версия формата : Version 2
Размер файла : 4,37 Гбайт
Продолжительность : 1 ч. 59 м.
Общий поток : 5254 Кбит/сек
Название фильма : Ходячий замок / Hauru no ugoku shiro (2004)
Дата кодирования : UTC 2012-01-15 10:47:24
Программа кодирования : mkvmerge v4.0.0 ('The Stars were mine') сборка от Jun 6 2010 16:18:42
Библиотека кодирования : libebml v1.0.0 + libmatroska v1.0.0

Видео
Идентификатор : 1
Формат : AVC
Формат/Информация : Advanced Video Codec
Профиль формата : High@L4.1
Параметр CABAC формата : Да
Параметр ReFrames формата : 4 кадра
Идентификатор кодека : V_MPEG4/ISO/AVC
Продолжительность : 1 ч. 59 м.
Битрейт : 4133 Кбит/сек
Ширина : 1920 пикселей
Высота : 1032 пикселя
Соотношение сторон : 1,860
Частота кадров : 23,976 кадра/сек
Цветовое пространство : YUV
Субдискретизация насыщенности : 4:2:0
Битовая глубина : 8 бит
Тип развёртки : Прогрессивная
Бит/(Пиксели*Кадры) : 0.087
Размер потока : 3,35 Гбайт (77%)
Заголовок : Release by AlexKa
Библиотека кодирования : x264 core 120 r2120 0c7dab9
Настройки программы : cabac=1 / ref=4 / deblock=1:0:0 / analyse=0x3:0x133 / me=umh / subme=10 / psy=1 / psy_rd=1.00:0.00 / mixed_ref=1 / me_range=32 / chroma_me=1 / trellis=2 / 8x8dct=1 / cqm=0 / deadzone=21,11 / fast_pskip=0 / chroma_qp_offset=-2 / threads=12 / sliced_threads=0 / nr=0 / decimate=0 / interlaced=0 / bluray_compat=0 / constrained_intra=0 / bframes=5 / b_pyramid=2 / b_adapt=2 / b_bias=0 / direct=3 / weightb=1 / open_gop=0 / weightp=2 / keyint=240 / keyint_min=24 / scenecut=40 / intra_refresh=0 / rc_lookahead=60 / rc=2pass / mbtree=1 / bitrate=4133 / ratetol=1.0 / qcomp=0.60 / qpmin=0 / qpmax=69 / qpstep=4 / cplxblur=20.0 / qblur=0.5 / ip_ratio=1.40 / aq=1:1.00
Язык : Japanese

Аудио #1
Идентификатор : 2
Формат : AC-3
Формат/Информация : Audio Coding 3
Расширение режима : CM (complete main)
Идентификатор кодека : A_AC3
Продолжительность : 1 ч. 59 м.
Вид битрейта : Постоянный
Битрейт : 224 Кбит/сек
Каналы : 2 канала
Расположение каналов : Front: L R
Частота : 48,0 КГц
Битовая глубина : 16 бит
Метод сжатия : С потерями
Размер потока : 191 Мбайт (4%)
Заголовок : Rus
Язык : Russian

Аудио #2
Идентификатор : 3
Формат : AC-3
Формат/Информация : Audio Coding 3
Расширение режима : CM (complete main)
Идентификатор кодека : A_AC3
Продолжительность : 1 ч. 59 м.
Вид битрейта : Постоянный
Битрейт : 448 Кбит/сек
Каналы : 6 каналов
Расположение каналов : Front: L C R, Side: L R, LFE
Частота : 48,0 КГц
Битовая глубина : 16 бит
Метод сжатия : С потерями
Размер потока : 382 Мбайт (9%)
Заголовок : Eng
Язык : English

Аудио #3
Идентификатор : 4
Формат : AC-3
Формат/Информация : Audio Coding 3
Расширение режима : CM (complete main)
Идентификатор кодека : A_AC3
Продолжительность : 1 ч. 59 м.
Вид битрейта : Постоянный
Битрейт : 448 Кбит/сек
Каналы : 6 каналов
Расположение каналов : Front: L C R, Side: L R, LFE
Частота : 48,0 КГц
Битовая глубина : 16 бит
Метод сжатия : С потерями
Размер потока : 382 Мбайт (9%)
Заголовок : Jpn
Язык : Japanese

Текст #1
Идентификатор : 5
Формат : UTF-8
Идентификатор кодека : S_TEXT/UTF8
Идентификатор кодека/Информация : UTF-8 Plain Text
Заголовок : Rus
Язык : Russian

Текст #2
Идентификатор : 6
Формат : UTF-8
Идентификатор кодека : S_TEXT/UTF8
Идентификатор кодека/Информация : UTF-8 Plain Text
Заголовок : Eng
Язык : English

Меню
00:00:00.000 : :Chapter 01
00:01:04.273 : :Chapter 02
00:04:58.632 : :Chapter 03
00:12:22.825 : :Chapter 04
00:18:23.269 : :Chapter 05
00:23:16.770 : :Chapter 06
00:28:51.939 : :Chapter 07
00:33:13.783 : :Chapter 08
00:40:10.241 : :Chapter 09
00:45:30.394 : :Chapter 10
00:49:15.870 : :Chapter 11
00:55:26.365 : :Chapter 12
00:58:32.509 : :Chapter 13
01:04:51.221 : :Chapter 14
01:10:53.708 : :Chapter 15
01:15:24.353 : :Chapter 16
01:20:25.487 : :Chapter 17
01:25:19.489 : :Chapter 18
01:32:30.879 : :Chapter 19
01:38:35.576 : :Chapter 20
01:44:22.423 : :Chapter 21
01:48:20.786 : :Chapter 22
01:52:19.483 : :Chapter 23
01:54:39.039 : :Chapter 24
Аватара пользователя
Korsar
Помощник Администратора-Корсар
 
Месяцев на трекере: 8Месяцев на трекере: 8Месяцев на трекере: 8Месяцев на трекере: 8Месяцев на трекере: 8Месяцев на трекере: 8Месяцев на трекере: 8Месяцев на трекере: 8
 

Награды: 2
За отличные раздачи (1) Верный Сид (1)
  • Торрент
Автор: Korsar Хэш: ---
Добавлен: 22 окт 2016, 23:56 Приватный: Нет (DHT включён)
Статус: Проверен
Размер: 4.37 ГБ (4 695 146 249 байт)
Изменил: Korsar (22 окт 2016, 23:59)
Скачали: 1472 (Раздающих: 4%)
Причина:
---
Здоровье: 100%
Сидеров: 56 Личеров: 3
Скорость раздачи: 0 байт/сек Скорость скачивания: 0 байт/сек
Последний сидер: 7 дней 5 часов 33 минуты 59 секунд назад Последний личер: 7 дней 5 часов 33 минуты 59 секунд назад
Для скачивания торрента необходимо зарегистрироваться или войти на трекер.

Вернуться в Аниме

проверить сайт