logo
Международный русскоязычный
торрент-трекер
Menu
Поделиться с друзьями: 
Голосуй за Корсар и получай 1000 дублонов каждый день
Рейтинг торрент трекеров - UpTracker.ru

Харпер / Harper (1966, драма, криминал, детектив, боевик, триллер, BDRip 1080p)

Сообщение msltel » 16 сен 2020, 08:46

Название: Харпер
Оригинальное название: Harper
Страна: США
Жанр: драма, криминал, детектив, боевик, триллер
Год выпуска: 1966
Продолжительность: 02:00:49
Режиссер: Джек Смайт
В ролях: Пол Ньюман, Лорен Бэколл, Джули Харрис, Артур Хилл, Джанет Ли, Памела Тиффин, Роберт Вагнер, Роберт Уэббер, Шелли Уинтерс, Харольд Гулд

О фильме: Частного детектива из Лос-Анджелеса Лью Харпера нанимает циничная богатая дама для поисков своего пропавшего мужа. Расследование сталкивает детектива с самыми сомнительными персонажами - стареющая актриса, певица из ночного клуба, глава религиозной секты, контрабандисты...



Качество: BDRip 1080p
Формат: MKV

Видео: MPEG-4 AVC, 13.8 Mбит/с, 1920x800, 23.976 кадр/с
Аудио 1: русский, AC3, 192 kbps, 2 ch, 48 kHz [закадровый многоголосый, HTB+]
Аудио 2: русский, AC3, 192 kbps, 2 ch, 48 kHz [авторский, Алексей Медведев]
Аудио 3: английский, FLAC, 897 kbps, 2 ch, 48 kHz [оригинал]
Субтитры 1: русские
Субтитры 2: английские
Главы/чаптеры

Общее
Уникальный идентификатор : 232006238332931795438261009024370146372 (0xAE8AC6B3030640BA80A592DEC7B8FC44)
Полное имя : D:\Video\Харпер.1966.BDRip 1080p msltel.mkv
Формат : Matroska
Версия формата : Version 4
Размер файла : 12,7 Гбайт
Продолжительность : 2 ч. 0 м.
Режим общего битрейта : Переменный
Общий поток : 15,0 Мбит/сек
Дата кодирования : UTC 2020-09-16 03:27:51
Программа кодирования : mkvmerge v8.2.0 ('World of Adventure') 64bit
Библиотека кодирования : libebml v1.3.1 + libmatroska v1.4.2

Видео
Идентификатор : 1
Формат : AVC
Формат/Информация : Advanced Video Codec
Профиль формата : High@L4.1
Настройки формата : CABAC / 5 Ref Frames
Параметр CABAC формата : Да
Параметр RefFrames формата : 5 кадров
Идентификатор кодека : V_MPEG4/ISO/AVC
Продолжительность : 2 ч. 0 м.
Битрейт : 13,8 Мбит/сек
Ширина : 1 920 пикселей
Высота : 800 пикселей
Соотношение сторон : 2,40:1
Режим частоты кадров : Постоянный
Частота кадров : 23,976 (24000/1001) кадра/сек
Цветовое пространство : YUV
Субдискретизация насыщенности : 4:2:0
Битовая глубина : 8 бит
Тип развёртки : Прогрессивная
Бит/(Пиксели*Кадры) : 0.373
Размер потока : 11,6 Гбайт (91%)
Библиотека кодирования : x264 core 159 r2991 1771b55
Настройки программы : cabac=1 / ref=5 / deblock=1:-2:-2 / analyse=0x3:0x113 / me=umh / subme=11 / psy=1 / psy_rd=1.00:0.15 / mixed_ref=1 / me_range=32 / chroma_me=1 / trellis=2 / 8x8dct=1 / cqm=0 / deadzone=21,11 / fast_pskip=0 / chroma_qp_offset=-3 / threads=6 / lookahead_threads=1 / sliced_threads=0 / nr=0 / decimate=1 / interlaced=0 / bluray_compat=0 / constrained_intra=0 / bframes=7 / b_pyramid=2 / b_adapt=2 / b_bias=0 / direct=1 / weightb=1 / open_gop=0 / weightp=2 / keyint=230 / keyint_min=23 / scenecut=40 / intra_refresh=0 / rc_lookahead=40 / rc=crf / mbtree=1 / crf=16.9 / qcomp=0.60 / qpmin=0 / qpmax=69 / qpstep=4 / vbv_maxrate=50000 / vbv_bufsize=62500 / crf_max=0.0 / nal_hrd=none / filler=0 / ip_ratio=1.40 / aq=1:1.00
Язык : English
Default : Да
Forced : Нет

Аудио #1
Идентификатор : 2
Формат : AC-3
Формат/Информация : Audio Coding 3
Коммерческое название : Dolby Digital
Идентификатор кодека : A_AC3
Продолжительность : 2 ч. 0 м.
Вид битрейта : Постоянный
Битрейт : 192 Кбит/сек
Каналы : 2 канала
Channel layout : L R
Частота : 48,0 КГц
Частота кадров : 31,250 кадров/сек (1536 SPF)
Метод сжатия : С потерями
Размер потока : 166 Мбайт (1%)
Заголовок : MVO HTB+
Язык : Russian
Service kind : Complete Main
Default : Да
Forced : Нет

Аудио #2
Идентификатор : 3
Формат : AC-3
Формат/Информация : Audio Coding 3
Коммерческое название : Dolby Digital
Идентификатор кодека : A_AC3
Продолжительность : 2 ч. 0 м.
Вид битрейта : Постоянный
Битрейт : 192 Кбит/сек
Каналы : 2 канала
Channel layout : L R
Частота : 48,0 КГц
Частота кадров : 31,250 кадров/сек (1536 SPF)
Метод сжатия : С потерями
Размер потока : 166 Мбайт (1%)
Заголовок : Алексей Медведев
Язык : Russian
Service kind : Complete Main
Default : Нет
Forced : Нет

Аудио #3
Идентификатор : 4
Формат : FLAC
Формат/Информация : Free Lossless Audio Codec
Идентификатор кодека : A_FLAC
Продолжительность : 2 ч. 0 м.
Вид битрейта : Переменный
Битрейт : 897 Кбит/сек
Каналы : 2 канала
Channel layout : L R
Частота : 48,0 КГц
Частота кадров : 11,719 кадров/сек (4096 SPF)
Битовая глубина : 24 бит
Метод сжатия : Без потерь
Размер потока : 775 Мбайт (6%)
Заголовок : оригинал
Библиотека кодирования : libFLAC 1.2.1 (UTC 2007-09-17)
Язык : English
Default : Нет
Forced : Нет

Текст #1
Идентификатор : 5
Формат : UTF-8
Идентификатор кодека : S_TEXT/UTF8
Идентификатор кодека/Информация : UTF-8 Plain Text
Продолжительность : 1 ч. 56 м.
Битрейт : 87 бит/сек
Count of elements : 1360
Размер потока : 74,5 Кбайт (0%)
Заголовок : русские
Язык : Russian
Default : Нет
Forced : Нет

Текст #2
Идентификатор : 6
Формат : UTF-8
Идентификатор кодека : S_TEXT/UTF8
Идентификатор кодека/Информация : UTF-8 Plain Text
Продолжительность : 1 ч. 55 м.
Битрейт : 59 бит/сек
Count of elements : 1356
Размер потока : 50,7 Кбайт (0%)
Заголовок : английские
Язык : English
Default : Нет
Forced : Нет

Меню
00:00:00.000 : en:Chapter 1
00:05:01.301 : en:Chapter 2
00:09:51.841 : en:Chapter 3
00:12:04.015 : en:Chapter 4
00:15:15.039 : en:Chapter 5
00:20:10.418 : en:Chapter 6
00:24:34.932 : en:Chapter 7
00:29:17.923 : en:Chapter 8
00:32:31.116 : en:Chapter 9
00:36:17.884 : en:Chapter 10
00:40:47.987 : en:Chapter 11
00:44:16.487 : en:Chapter 12
00:48:09.011 : en:Chapter 13
00:51:02.476 : en:Chapter 14
00:54:26.930 : en:Chapter 15
00:57:05.339 : en:Chapter 16
01:00:18.990 : en:Chapter 17
01:03:53.580 : en:Chapter 18
01:07:57.907 : en:Chapter 19
01:10:48.828 : en:Chapter 20
01:14:10.488 : en:Chapter 21
01:19:24.677 : en:Chapter 22
01:24:21.265 : en:Chapter 23
01:26:18.382 : en:Chapter 24
01:33:52.460 : en:Chapter 25
01:35:46.324 : en:Chapter 26
01:40:45.873 : en:Chapter 27
01:45:42.169 : en:Chapter 28
01:49:27.770 : en:Chapter 29
01:53:09.616 : en:Chapter 30
01:58:10.000 : en:Chapter 31
02:00:18.169 : en:Chapter 32

---[Information] [14.09.2020 22:54:28] y4m [info]: 1920x800p 1:1 @ 24000/1001 fps (cfr)
---[Information] [14.09.2020 22:54:28] x264 [info]: using SAR=1/1
---[Information] [14.09.2020 22:54:28] x264 [info]: using cpu capabilities: MMX2 SSE2Fast SSSE3 SSE4.2 AVX
---[Information] [14.09.2020 22:54:28] x264 [info]: profile High, level 4.1, 4:2:0, 8-bit
---[Information] [15.09.2020 20:23:25] x264 [info]: frame I:1109 Avg QP:14.74 size:263184
---[Information] [15.09.2020 20:23:26] x264 [info]: frame P:31349 Avg QP:17.69 size:110184
---[Information] [15.09.2020 20:23:26] x264 [info]: frame B:141337 Avg QP:19.42 size: 61647
---[Information] [15.09.2020 20:23:26] x264 [info]: consecutive B-frames: 0.9% 0.5% 2.7% 5.4% 13.3% 68.5% 6.8% 1.8%
---[Information] [15.09.2020 20:23:26] x264 [info]: mb I I16..4: 13.2% 71.4% 15.4%
---[Information] [15.09.2020 20:23:26] x264 [info]: mb P I16..4: 0.5% 22.9% 1.3% P16..4: 26.0% 35.3% 13.5% 0.0% 0.0% skip: 0.5%
---[Information] [15.09.2020 20:23:26] x264 [info]: mb B I16..4: 0.1% 6.7% 0.1% B16..8: 37.7% 24.0% 4.2% direct:13.6% skip:13.5% L0:45.6% L1:37.3% BI:17.1%
---[Information] [15.09.2020 20:23:26] x264 [info]: 8x8 transform intra:93.7% inter:46.3%
---[Information] [15.09.2020 20:23:26] x264 [info]: coded y,uvDC,uvAC intra: 98.7% 91.3% 73.4% inter: 59.7% 38.9% 6.0%
---[Information] [15.09.2020 20:23:26] x264 [info]: i16 v,h,dc,p: 14% 5% 26% 55%
---[Information] [15.09.2020 20:23:26] x264 [info]: i8 v,h,dc,ddl,ddr,vr,hd,vl,hu: 7% 10% 13% 9% 12% 9% 13% 11% 16%
---[Information] [15.09.2020 20:23:26] x264 [info]: i4 v,h,dc,ddl,ddr,vr,hd,vl,hu: 8% 10% 5% 8% 14% 12% 16% 10% 16%
---[Information] [15.09.2020 20:23:26] x264 [info]: i8c dc,h,v,p: 49% 20% 16% 14%
---[Information] [15.09.2020 20:23:26] x264 [info]: Weighted P-Frames: Y:4.7% UV:3.5%
---[Information] [15.09.2020 20:23:26] x264 [info]: ref P L0: 38.2% 9.0% 27.0% 12.2% 13.2% 0.4% 0.0%
---[Information] [15.09.2020 20:23:26] x264 [info]: ref B L0: 69.1% 20.8% 8.0% 2.1%
---[Information] [15.09.2020 20:23:26] x264 [info]: ref B L1: 91.3% 8.7%
---[Information] [15.09.2020 20:23:26] x264 [info]: kb/s:13750.30
---[Information] [15.09.2020 20:23:26] encoded 173795 frames, 2.25 fps, 13750.30 kb/s

"И не совершил там многих чудес по неверию их." (Евангелие от Матфея)
КУБКИ

СТАЖ

МЕДАЛИ
Награды:43

За отличные раздачи и качество (23) За подробное оформление раздач (2) За отличные комментарии (1) Почётный форумчанин (1) Верный Сид (15)

Аватара пользователя
Russia
msltel
Уважаемый Релизёр-Корсар
  • Торрент
Для скачивания торрента необходимо зарегистрироваться или войти на трекер.

Сообщение kwazar312 » 16 сен 2020, 10:58

Фильм снят по мотивам романа Росса Макдональда "Живая мишень" (The Moving Target, 1949).
Писатель Росс Макдональд не разрешил использовать книжное имя детектива - Лью Арчер и суеверные продюсеры решили назвать фильм на букву «H», ссылаясь на успех фильма «Хад (Hud)» 1963 года с Ньюманом в главной роли.
Росс Макдональд один из столпов крутого детектива наиболее известен своими романами о частном детективе Лью Арчере. Автор запретил использовать имя детектива в фильме и его заменили на Харпера. Его роль исполнил Пол Ньюман, один из самых популярных голливудских актёров 60-х. Его герой приезжает в загородный особняк, чтобы расследовать дело о похищении. Здесь его нанимает жена предполагаемой жертвы с лицом Лорен Бэколл. Разумеется дело оказывается весьма запутанным, а сам сюжет обрастает ещё несколькими побочными линиями.
Уважаемый msltel,спасибо за хороший старенький детектив.
:hi: :10 balov: :good:
КУБКИ

СТАЖ

МЕДАЛИ
Награды:149

Пожизненный VIP+ (4) За активную помощь проекту VIP (14) Лучший по количеству кубков (46) За отличные раздачи и качество (3) За отличные комментарии (26) Почётный форумчанин (1) Верный Сид (49) За участие в конкурсах/играх (6)

Аватара пользователя
kwazar312
Заслуженный Корсар-VIP+


Вернуться в Классика зарубежного кино (фильмы до 1980 года / HD Video)



Рейтинг@Mail.ru