logo
Международный русскоязычный
торрент-трекер
Menu
Магазин-KorsaRDoublon
Поделиться с друзьями: 
Голосуй за Корсар и получай дублоны
Рейтинг торрент трекеров - UpTracker.ru

Ханума (1978, Фильм-спектакль, DVDRip-AVC) - KORSAR

Сообщение filbi1976 » 08 окт 2016, 15:47

Название: Ханума
Год выхода: 1978
Жанр: Фильм-спектакль
Режиссер: Георгий Товстоногов
В ролях: Людмила Макарова, Вадим Медведев, Владислав Стржельчик, Валентина Ковель, Николай Трофимов, Всеволод Кузнецов, Мария Призван-Соколова, Елена Алексеева, Геннадий Богачёв, Марина Адашевская, Леонид Неведомский, Георгий Штиль, Анатолий Гаричев, Валерий Караваев, Владимир Козлов, Юзеф Мироненко, Иван Пальму, Евгений Соляков, Людмила Сапожникова, Евгений Чудаков

О фильме:
Веселая история о никогда не унывающей и предприимчивой свахе Хануме.
Тбилиси. Начало XX века. Князь Пантиашвили прокрутил всё своё состояние. Выход один - срочно жениться на богатой девушке. За дело берется сваха Ханума...

Страна: СССР
Студия: Киностудия Ленфильм
Продолжительность: 02:19:12

Файл
Кодек: х264
Качество: DVDRip-AVC
Видео: MPEG-4 AVC, 714x568@761x568, 25 fps, 2552 Кбит/с
Звук: AC3, 6 ch, 448 Кбит/с, AC3, 1 ch, 192 Кбит/с


raw [info]: 714x568p 16:15 @ 25/1 fps (cfr)
x264 [info]: using SAR=16/15
x264 [info]: using cpu capabilities: MMX2 SSE2Fast SSSE3 SSE4.2 AVX
x264 [info]: profile High, level 4.1
x264 [info]: frame I:928 Avg QP:17.26 size: 85169
x264 [info]: frame P:47408 Avg QP:20.75 size: 29894
x264 [info]: frame B:160480 Avg QP:22.65 size: 7282
==================================================================================
Общее
Уникальный идентификатор : 172605732327712274692635143224973770167 (0x81DAA7A40188F883A6B368B3C39EBDB7)
Полное имя : D:\Ханума_1978-DVDRip-AVC.mkv
Формат : Matroska
Версия формата : Version 2
Размер файла : 3,11 Гбайт
Продолжительность : 2 ч. 19 м.
Общий поток : 3194 Кбит/сек
Дата кодирования : UTC 2016-10-08 12:43:13
Программа кодирования : mkvmerge v5.8.0 ('No Sleep / Pillow') built on Sep 2 2012 15:37:04
Библиотека кодирования : libebml v1.2.3 + libmatroska v1.3.0

Видео
Идентификатор : 1
Формат : AVC
Формат/Информация : Advanced Video Codec
Профиль формата : High@L4.1
Параметр CABAC формата : Да
Параметр ReFrames формата : 13 кадров
Идентификатор кодека : V_MPEG4/ISO/AVC
Продолжительность : 2 ч. 19 м.
Битрейт : 2552 Кбит/сек
Ширина : 714 пикселей
Высота : 568 пикселей
Соотношение сторон : 4:3
Соотношение сторон в оригинале : 4:3
Режим частоты кадров : Постоянный
Частота кадров : 25,000 кадров/сек
Цветовое пространство : YUV
Субдискретизация насыщенности : 4:2:0
Битовая глубина : 8 бит
Тип развёртки : Прогрессивная
Бит/(Пиксели*Кадры) : 0.252
Размер потока : 2,42 Гбайт (78%)
Заголовок : korsar.tv
Библиотека кодирования : x264 core 148 r2638 7599210
Настройки программы : cabac=1 / ref=13 / deblock=1:-2:-2 / analyse=0x3:0x133 / me=umh / subme=10 / psy=1 / psy_rd=1.05:0.13 / mixed_ref=1 / me_range=32 / chroma_me=1 / trellis=2 / 8x8dct=1 / cqm=0 / deadzone=21,11 / fast_pskip=0 / chroma_qp_offset=-3 / threads=12 / lookahead_threads=3 / sliced_threads=0 / nr=0 / decimate=0 / interlaced=0 / bluray_compat=0 / constrained_intra=0 / bframes=10 / b_pyramid=2 / b_adapt=2 / b_bias=0 / direct=3 / weightb=1 / open_gop=0 / weightp=2 / keyint=250 / keyint_min=25 / scenecut=40 / intra_refresh=0 / rc=2pass / mbtree=0 / bitrate=2552 / ratetol=1.0 / qcomp=0.63 / qpmin=0 / qpmax=39 / qpstep=4 / cplxblur=20.0 / qblur=0.5 / ip_ratio=1.40 / pb_ratio=1.30 / aq=1:1.00
Язык : English
Default : Да
Forced : Нет
Цветовой диапазон : Limited
Основные цвета : BT.601 PAL
Характеристики трансфера : BT.470 System B, BT.470 System G
Коэффициенты матрицы : BT.601

Аудио #1
Идентификатор : 2
Формат : AC-3
Формат/Информация : Audio Coding 3
Расширение режима : CM (complete main)
Параметр Endianness формата : Big
Идентификатор кодека : A_AC3
Продолжительность : 2 ч. 19 м.
Вид битрейта : Постоянный
Битрейт : 448 Кбит/сек
Каналы : 6 каналов
Расположение каналов : Front: L C R, Side: L R, LFE
Частота : 48,0 КГц
Метод сжатия : С потерями
Задержка видео : 4 с. 161 мс.
Размер потока : 446 Мбайт (14%)
Язык : Russian
Default : Да
Forced : Нет

Аудио #2
Идентификатор : 3
Формат : AC-3
Формат/Информация : Audio Coding 3
Расширение режима : CM (complete main)
Параметр Endianness формата : Big
Идентификатор кодека : A_AC3
Продолжительность : 2 ч. 19 м.
Вид битрейта : Постоянный
Битрейт : 192 Кбит/сек
Каналы : 1 канал
Расположение каналов : Front: C
Частота : 48,0 КГц
Метод сжатия : С потерями
Задержка видео : 4 с. 160 мс.
Размер потока : 191 Мбайт (6%)
Язык : Russian
Default : Нет
Forced : Нет

Меню
00:00:00.000 : en:Chapter 1
00:13:07.600 : en:Chapter 2
00:20:12.320 : en:Chapter 3
00:31:51.400 : en:Chapter 4
00:36:17.800 : en:Chapter 5
00:43:16.080 : en:Chapter 6
00:53:30.480 : en:Chapter 7
00:59:23.000 : en:Chapter 8
01:13:08.000 : en:Chapter 9
01:23:27.880 : en:Chapter 10
01:30:20.800 : en:Chapter 11
01:40:00.560 : en:Chapter 12
01:54:04.120 : en:Chapter 13
02:02:40.760 : en:Chapter 14
02:05:22.320 : en:Chapter 15
02:09:33.360 : en:Chapter 16
02:19:10.640 : en:Chapter 17

Аватара пользователя
filbi1976
Главный-Корсар
 
 

Награды: 14
За отличные раздачи (10) Верный Сид (4)
  • Торрент
Для скачивания торрента необходимо зарегистрироваться или войти на трекер.

Сообщение bagrad » 08 окт 2016, 16:53

Ай, молодэц!!! :good: :good: :good: Спасибо нашему Мастеру!!! Низкий поклон от меня и моей мамы!!! :hi: :hi: :hi:
Великолепный спектакль режиссёра Георгия Товстоногова!
Dum spíro, spéro!
Аватара пользователя
bagrad
Заслуженный Корсар-Вип
 
 

Награды: 11
За помощь проекту (1) Лучший по количеству кубков (5) За отличные комментарии (1) Верный Сид (4)

Сообщение Digor » 08 окт 2016, 23:05

Спасибо огромное, Сергей! :hi:
Гениальная постановка Товстоногова и с блестящими театральными актерами!
Аватара пользователя
Digor
Заслуженный Корсар-Вип
 
 

Награды: 4
За помощь проекту (1) Лучший по количеству кубков (1) Верный Сид (2)

Сообщение al1ksandr » 09 окт 2016, 13:50

Отличный спектакль! Прекрасная экранизация одноименной пьесы Авксентия Цагарели. Людмила Макарова и Владислав Стржельчик великолепно сыграли свои роли. Режиссер Георгий Товстоногов создал настоящий шедевр. Один из лучших советских фильмов (то, что это фильм-спектакль, только придает ему теплоты и камерности) - прекрасная режиссура, актерская игра, искрометный юмор, цельность и огромный заряд оптимизма и хорошего настроения остается надолго после просмотра. Спасибо за релиз, filbi 1976!
Аватара пользователя
al1ksandr
Заслуженный Корсар
 
 

Награды: 20
Лучший по количеству кубков (5) За отличные комментарии (6) Почётный форумчанин (7) За участие в конкурсах (2)

Сообщение verybigpapa » 09 окт 2016, 19:37

Гениальный спектакль! Огромное спасибо, уважаемый filbi1976.
Улыбайтесь, господа! Улыбайтесь!
Аватара пользователя
verybigpapa
Заслуженный Корсар-Вип
 
 

Награды: 13
За помощь проекту (5) Лучший по количеству кубков (2) За отличные комментарии (2) Верный Сид (4)


Вернуться в Фильмы-спектакли, театральные постановки



мониторинг сайтов