logo
Международный русскоязычный
торрент-трекер
Menu
Doublon
Поделиться с друзьями: 
Голосуй за Корсар и получи 400 дублонов
Рейтинг торрент трекеров - UpTracker.ru

Грецкий орешек (2018, комедия, приключения, WEB-DLRip-AVC) | iTunes

Сообщение Korsarka » 11 янв 2019, 08:21

Оригинальное название: Грецкий орешек
Год выхода: 2018
Жанр: комедия, приключения
Режиссер: Стас Иванов
Сценарий: Стас Иванов
В ролях: Кирилл Каганович, Антон Васильев, Александр Робак, Полина Толстун, Михаил Пшеничный, Максим Лагашкин, Геннадий Пачис, Мария Болонкина, Антонина Комиссарова, Анастасия Стежко и др.

О фильме: Кажется, что у Артура всё хорошо. Он молод, остроумен, ведет свое шоу на модном радио, живет с красавицей, на которой собирается жениться. Но! Его избранница вынесла ему мозг. И внезапная страсть к поиску себя подталкивает молодого человека сбежать в Грецию! Там он быстро находит друзей. Вместе они вытворяют такое, что даже местные мафиози не могут пройти мимо. Целая вереница событий и случайностей, опасные и неожиданные моменты поворачивают отпуск совсем в другое русло… Яркая, авантюрная комедия, настоящее путешествие в страну Олимпийского огня и красивых дочерей главного греческого мафиози!





Страна: Россия
Продолжительность: 01:29:27
Язык: Русский

Формат: MKV
Качество: WEB-DLRip-AVC
Видео: 1024x428 (2.40:1), 24.000 fps, MPEG-4 AVC 1680 kbps avg, 0.160 bit/pixel
Аудио: 48 kHz, AC3 Dolby Digital, 3/2 (L,C,R,l,r) + LFE ch, ~384 kbps | iTunes

General
Unique ID : 173089257189154566337917239924695999296 (0x8237C741C3A96C63957D5731FFB3A340)
Complete name : D:\Greckiy.Oreh.2O18.AVC.ExKinoRay.mkv
Format : Matroska
Format version : Version 2
File size : 1.29 GiB
Duration : 1 h 29 min
Overall bit rate : 2 065 kb/s
Movie name : Грецкий орешек (2018) from ExKinoRay
Encoded date : UTC 2019-01-11 04:43:07
Writing application : mkvmerge v5.6.0 ('Kenya Kane') built on May 27 2012 16:44:04
Writing library : libebml v1.2.3 + libmatroska v1.3.0

Video
ID : 1
Format : AVC
Format/Info : Advanced Video Codec
Format profile : High@L4.1
Format settings, CABAC : Yes
Format settings, ReFrames : 12 frames
Codec ID : V_MPEG4/ISO/AVC
Duration : 1 h 29 min
Bit rate : 1 680 kb/s
Width : 1 024 pixels
Height : 428 pixels
Display aspect ratio : 2.40:1
Frame rate mode : Constant
Frame rate : 24.000 FPS
Color space : YUV
Chroma subsampling : 4:2:0
Bit depth : 8 bits
Scan type : Progressive
Bits/(Pixel*Frame) : 0.160
Stream size : 1.03 GiB (79%)
Title : Enigma
Writing library : x264 core 152 r2851 ba24899
Encoding settings : cabac=1 / ref=12 / deblock=1:-2:-2 / analyse=0x3:0x113 / me=umh / subme=10 / psy=1 / psy_rd=1.05:0.10 / mixed_ref=1 / me_range=32 / chroma_me=1 / trellis=2 / 8x8dct=1 / cqm=0 / deadzone=21,11 / fast_pskip=0 / chroma_qp_offset=-3 / threads=12 / lookahead_threads=2 / sliced_threads=0 / nr=0 / decimate=0 / interlaced=0 / bluray_compat=0 / constrained_intra=0 / bframes=9 / b_pyramid=2 / b_adapt=2 / b_bias=0 / direct=3 / weightb=1 / open_gop=0 / weightp=2 / keyint=240 / keyint_min=24 / scenecut=40 / intra_refresh=0 / rc=2pass / mbtree=0 / bitrate=1680 / ratetol=1.0 / qcomp=0.60 / qpmin=0 / qpmax=51 / qpstep=4 / cplxblur=20.0 / qblur=0.5 / ip_ratio=1.40 / pb_ratio=1.30 / aq=1:1.00
Language : English
Default : Yes
Forced : No

Audio
ID : 2
Format : AC-3
Format/Info : Audio Coding 3
Mode extension : CM (complete main)
Format settings, Endianness : Big
Codec ID : A_AC3
Duration : 1 h 29 min
Bit rate mode : Constant
Bit rate : 384 kb/s
Channel(s) : 6 channels
Channel positions : Front: L C R, Side: L R, LFE
Sampling rate : 48.0 kHz
Frame rate : 31.250 FPS (1536 spf)
Compression mode : Lossy
Stream size : 246 MiB (19%)
Language : Russian
Default : Yes
Forced : No






Релиз от:

Автор релиза:
КУБКИ

СТАЖ

МЕДАЛИ
Награды:34

Лучший по количеству кубков (6) За отличные раздачи и качество (14) За подробное оформление раздач (1) За отличные комментарии (2) Почётный форумчанин (1) Верный Сид (6) C наступающим Новым Годом!!! (1)

Аватара пользователя
Korsarka
Уважаемый Релизёр-Корсар
  • Торрент
Для скачивания торрента необходимо зарегистрироваться или войти на трекер.

Вернуться в Наше современное кино



Uptime по данным Ping-Admin.Ru - сервиса мониторинга доступности сайтов
Рейтинг@Mail.ru Голосуйте за наш сайт в каталоге Rubo.Ru