logo
Международный русскоязычный
торрент-трекер
Menu
Doublon
Поделиться с друзьями: 
Голосуй за Корсар и получи 500 дублонов
Рейтинг торрент трекеров - UpTracker.ru

Гость на свадьбе / The Wedding Guest (2018, триллер, WEB-DL 1080p) | iTunes

Сообщение kisa1980 » 10 июл 2019, 16:00

Название: Гость на свадьбе
Оригинальное название: The Wedding Guest
Год выхода: 2018
Жанр: Триллер
Режиссер: Майкл Уинтерботтом
В ролях: Дев Патель, Радхика Апте, Джим Сарбх, Ниш Натвани, Хэриш Ханна

О фильме: Точно спланированная операция, призванная спасти девушку от нежелательной свадьбы, оборачивается гонкой на перегонки со временем, где каждый неверный шаг может стоит жизни



Страна: Великобритания
Студия: India Take One Productions, Ingenious Media, Isobel Griffiths Limited, Lipsync Post, Revolution Films, Riverstone Pictures, Stage 6 Films
Продолжительность: 01:36:28
Перевод: Профессиональный (многоголосый, закадровый) | iTunes

Качество: WEB-DL 1080p
Формат: MKV
Видео: 1920x800 (2,40:1), 23,976 fps, MPEG-4 AVC ~ 8415 Kbps avg, 0.229 bit/pixel
Аудио: AC3, 48 kHz, 6 ch, ~384.00 kbps avg | русский | iTunes
Аудио: E-AC3, 48 kHz, 6 ch, ~640.00.00 kbps avg | английский | Оригинал
Субтитры: Русские (Full), украинские (Full), английские (Full)

Общее
Уникальный идентификатор : 138197629978302272857981135236848307524 (0x67F7E537BECCBC197284F9D81ABA4D44)
Полное имя : The.Wedding.Guest.2018.1080p.WEB-DL.DD.5.1.Rus.Eng.mkv
Формат : Matroska
Версия формата : Version 4 / Version 2
Размер файла : 6,36 Гбайт
Продолжительность : 1 ч. 36 м.
Общий поток : 9442 Кбит/сек
Название фильма : Гость на свадьбе / The Wedding Guest (2018)
Дата кодирования : UTC 2019-07-10 11:49:04
Программа кодирования : mkvmerge v27.0.0 ('Metropolis') 64-bit
Библиотека кодирования : libebml v1.3.6 + libmatroska v1.4.9
Обложка : Yes
Attachments : cover.jpg

Видео
Идентификатор : 1
Формат : AVC
Формат/Информация : Advanced Video Codec
Профиль формата : High@L4
Настройки формата : CABAC / 4 Ref Frames
Параметр CABAC формата : Да
Параметр RefFrames формата : 4 кадра
Идентификатор кодека : V_MPEG4/ISO/AVC
Продолжительность : 1 ч. 36 м.
Вид битрейта : Постоянный
Битрейт : 8415 Кбит/сек
Номинальный битрейт : 10000 Кбит/сек
Ширина : 1920 пикселей
Высота : 800 пикселей
Соотношение сторон : 2,40:1
Режим частоты кадров : Постоянный
Частота кадров : 23,976 (24000/1001) кадра/сек
Цветовое пространство : YUV
Субдискретизация насыщенности : 4:2:0
Битовая глубина : 8 бит
Тип развёртки : Прогрессивная
Бит/(Пиксели*Кадры) : 0.229
Размер потока : 5,67 Гбайт (89%)
Заголовок : The.Wedding.Guest.2019.1080p.WEB-DL
Default : Да
Forced : Нет
Цветовой диапазон : Limited
Основные цвета : BT.709
Характеристики трансфера : BT.709
Коэффициенты матрицы : BT.709

Аудио #1
Идентификатор : 2
Формат : AC-3
Формат/Информация : Audio Coding 3
Идентификатор кодека : A_AC3
Продолжительность : 1 ч. 36 м.
Вид битрейта : Постоянный
Битрейт : 384 Кбит/сек
Каналы : 6 каналов
Расположение каналов : Front: L C R, Side: L R, LFE
Частота : 48,0 КГц
Частота кадров : 31,250 кадров/сек (1536 SPF)
Битовая глубина : 16 бит
Метод сжатия : С потерями
Размер потока : 265 Мбайт (4%)
Заголовок : iTunes
Язык : Russian
Default : Да
Forced : Нет

Аудио #2
Идентификатор : 3
Формат : E-AC-3
Формат/Информация : Enhanced Audio Coding 3
Идентификатор кодека : A_EAC3
Продолжительность : 1 ч. 36 м.
Вид битрейта : Постоянный
Битрейт : 640 Кбит/сек
Каналы : 6 каналов
Расположение каналов : Front: L C R, Side: L R, LFE
Частота : 48,0 КГц
Частота кадров : 187,500 кадров/сек (256 SPF)
Метод сжатия : С потерями
Размер потока : 442 Мбайт (7%)
Язык : English
Default : Нет
Forced : Нет

Текст #1
Идентификатор : 4
Формат : UTF-8
Идентификатор кодека : S_TEXT/UTF8
Идентификатор кодека/Информация : UTF-8 Plain Text
Продолжительность : 1 ч. 28 м.
Битрейт : 48 бит/сек
ElementCount : 770
Размер потока : 31,0 Кбайт (0%)
Заголовок : Full
Язык : Russian
Default : Да
Forced : Нет

Текст #2
Идентификатор : 5
Формат : UTF-8
Идентификатор кодека : S_TEXT/UTF8
Идентификатор кодека/Информация : UTF-8 Plain Text
Продолжительность : 1 ч. 28 м.
Битрейт : 48 бит/сек
ElementCount : 769
Размер потока : 31,0 Кбайт (0%)
Заголовок : Full
Язык : Ukrainian
Default : Нет
Forced : Нет

Текст #3
Идентификатор : 6
Формат : UTF-8
Идентификатор кодека : S_TEXT/UTF8
Идентификатор кодека/Информация : UTF-8 Plain Text
Продолжительность : 1 ч. 32 м.
Битрейт : 35 бит/сек
ElementCount : 956
Размер потока : 24,0 Кбайт (0%)
Заголовок : Full
Язык : English
Default : Нет
Forced : Нет

Меню #1
00:00:00.000 : en:1
00:06:04.114 : en:2
00:12:07.227 : en:3
00:21:57.233 : en:4
00:26:07.358 : en:5
00:29:00.739 : en:6
00:35:46.811 : en:7
00:41:23.354 : en:8
00:48:28.821 : en:9
00:53:40.424 : en:10
01:03:15.665 : en:11
01:05:34.637 : en:12
01:12:03.316 : en:13
01:18:25.740 : en:14
01:23:42.305 : en:15
01:28:22.418 : en:16

Меню #2
00:00:00.000 : :1
00:06:04.114 : :2
00:12:07.227 : :3
00:21:57.233 : :4
00:26:07.358 : :5
00:29:00.739 : :6
00:35:46.811 : :7
00:41:23.354 : :8
00:48:28.821 : :9
00:53:40.424 : :10
01:03:15.665 : :11
01:05:34.637 : :12
01:12:03.316 : :13
01:18:25.740 : :14
01:23:42.305 : :15
01:28:22.418 : :16

КУБКИ

СТАЖ

МЕДАЛИ
Награды:93

За помощь проекту (9) Лучший по количеству кубков (3) За отличные раздачи и качество (32) За подробное оформление раздач (5) За отличные комментарии (9) Почётный форумчанин (7) Верный Сид (24) За участие в конкурсах/играх (2)

Аватара пользователя
Тортуга
kisa1980
Главный помощник Администратора-Корсар
  • Торрент
Для скачивания торрента необходимо зарегистрироваться или войти на трекер.

Вернуться в Зарубежное кино (2011-2019 / HD Video)



Uptime по данным Ping-Admin.Ru - сервиса мониторинга доступности сайтов
Рейтинг@Mail.ru Голосуйте за наш сайт в каталоге Rubo.Ru