logo
Международный русскоязычный
торрент-трекер
Menu

Doublon
Поделиться с друзьями: 
Голосуй за Корсар и получи 400 дублонов
Рейтинг торрент трекеров - UpTracker.ru

Город Зеро (1988, Комедия, драма, BDRip 720p)

Сообщение mister.hats » 08 ноя 2018, 20:17

Город Зеро


Год выпуска: 1988
Жанр: Комедия, драма
Страна: СССР
Студия: Мосфильм
Продолжительность: 01:41:44
Перевод: Не требуется

Режиссер: Карен Шахназаров
В ролях: Леонид Филатов, Олег Басилашвили, Владимир Меньшов, Армен Джигарханян, Евгений Евстигнеев, Алексей Жарков,
Петр Щербаков, Юрий Шерстнев, Елена Аржаник, Татьяна Хвостикова

Описание: Отправившись в командировку, герой фильма неожиданно попадет в фантастический город.
Он очень похож на наш мир, только скрытая абсурдность повседневной жизни здесь стала явной. Город Зеро открывает герою одну тайну за другой, и вернуться в привычную реальность становится все трудней...



Кодек: х264
Качество: BDRip 720p
Видео: MPEG-4 AVC, 6000 Кбит/с, 992x720, 23,976 кадр/с
Аудио: AC3, 6 ch, 448 Кбит/с
Субтитры: Нет
Главы: Есть



x264 [info]: frame I:799 Avg QP:13.19 size:147807
x264 [info]: frame P:27298 Avg QP:15.40 size: 72120
x264 [info]: frame B:118253 Avg QP:17.26 size: 21047

Общее
Уникальный идентификатор : 211480747301766940467201739594352399521 (0x9F19B5DC0D77A1E8BA45137CAF6D94A1)
Полное имя : H:СССРГород Зеро 1988_BDRip 720p.mkv
Формат : Matroska
Версия формата : Version 2
Размер файла : 4,58 Гбайт
Продолжительность : 1 ч. 42 м.
Общий поток : 6413 Кбит/сек
Название фильма : Город Зеро от mister.hats
Дата кодирования : UTC 2018-11-04 03:17:32
Программа кодирования : mkvmerge v5.8.0 ('No Sleep / Pillow') built on Sep 2 2012 15:37:04
Библиотека кодирования : libebml v1.2.3 + libmatroska v1.3.0

Видео
Идентификатор : 1
Формат : AVC
Формат/Информация : Advanced Video Codec
Профиль формата : High@L4.1
Настройки формата : CABAC / 11 Ref Frames
Параметр CABAC формата : Да
Параметр RefFrames формата : 11 кадров
Идентификатор кодека : V_MPEG4/ISO/AVC
Продолжительность : 1 ч. 42 м.
Битрейт : 6000 Кбит/сек
Ширина : 992 пикселя
Высота : 720 пикселей
Соотношение сторон : 1,378
Режим частоты кадров : Постоянный
Частота кадров : 23,976 (24000/1001) кадра/сек
Цветовое пространство : YUV
Субдискретизация насыщенности : 4:2:0
Битовая глубина : 8 бит
Тип развёртки : Прогрессивная
Бит/(Пиксели*Кадры) : 0.350
Размер потока : 4,17 Гбайт (91%)
Библиотека кодирования : x264 core 152 r2851kMod ba24899
Настройки программы : cabac=1 / ref=11 / deblock=1:-2:-2 / analyse=0x3:0x113 / me=umh / subme=11 / psy=1 / fade_compensate=0.00 / psy_rd=1.00:0.02 / mixed_ref=1 / me_range=48 / chroma_me=1 / trellis=2 / 8x8dct=1 / cqm=0 / deadzone=21,11 / fast_pskip=0 / chroma_qp_offset=-3 / threads=12 / lookahead_threads=2 / sliced_threads=0 / nr=0 / decimate=0 / interlaced=0 / bluray_compat=0 / constrained_intra=0 / bframes=8 / b_pyramid=2 / b_adapt=2 / b_bias=0 / direct=3 / weightb=1 / open_gop=0 / weightp=2 / keyint=240 / keyint_min=23 / scenecut=40 / intra_refresh=0 / rc_lookahead=40 / rc=2pass / mbtree=0 / bitrate=6000 / ratetol=1.0 / qcomp=0.60 / qpmin=0 / qpmax=39 / qpstep=4 / cplxblur=20.0 / qblur=0.5 / vbv_maxrate=50000 / vbv_bufsize=62500 / nal_hrd=none / filler=0 / ip_ratio=1.25 / pb_ratio=1.30 / aq=1:0.90
Язык : English
Default : Да
Forced : Нет
Цветовой диапазон : Limited
Основные цвета : BT.709
Характеристики трансфера : BT.709
Коэффициенты матрицы : BT.709

Аудио
Идентификатор : 2
Формат : AC-3
Формат/Информация : Audio Coding 3
Параметр Endianness формата : Big
Идентификатор кодека : A_AC3
Продолжительность : 1 ч. 42 м.
Вид битрейта : Постоянный
Битрейт : 448 Кбит/сек
Каналы : 6 каналов
Расположение каналов : Front: L C R, Side: L R, LFE
Частота : 48,0 КГц
Частота кадров : 31,250 кадров/сек (1536 SPF)
Битовая глубина : 16 бит
Метод сжатия : С потерями
Размер потока : 328 Мбайт (7%)
Язык : Russian
Default : Да
Forced : Нет

Меню
00:00:00.000 : en:Chapter 1
00:05:01.843 : en:Chapter 2
00:14:06.512 : en:Chapter 3
00:21:58.358 : en:Chapter 4
00:26:30.839 : en:Chapter 5
00:34:01.372 : en:Chapter 6
00:44:58.320 : en:Chapter 7
00:54:19.047 : en:Chapter 8
01:04:10.555 : en:Chapter 9
01:11:52.308 : en:Chapter 10
01:19:48.909 : en:Chapter 11
01:33:31.230 : en:Chapter 12



Тот кто не с нами, тот против нас
КУБКИ

СТАЖ

МЕДАЛИ
Награды:51

За помощь проекту (7) Лучший по количеству кубков (12) За отличные раздачи и качество (21) За подробное оформление раздач (2) За отличные комментарии (1) Верный Сид (8)

Аватара пользователя
Тортуга
mister.hats
Заслуженный Корсар-Вип
  • Торрент
Для скачивания торрента необходимо зарегистрироваться или войти на трекер.

Сообщение mister.hats » 09 ноя 2018, 12:27


Тот кто не с нами, тот против нас
КУБКИ

СТАЖ

МЕДАЛИ
Награды:51

За помощь проекту (7) Лучший по количеству кубков (12) За отличные раздачи и качество (21) За подробное оформление раздач (2) За отличные комментарии (1) Верный Сид (8)

Аватара пользователя
Тортуга
mister.hats
Заслуженный Корсар-Вип


Вернуться в Кино времён СССР (HD Video)



Uptime по данным Ping-Admin.Ru - сервиса мониторинга доступности сайтов
Рейтинг@Mail.ru Голосуйте за наш сайт в каталоге Rubo.Ru