logo
Международный русскоязычный
торрент-трекер
Menu

Doublon
Поделиться с друзьями: 
Голосуй за Корсар и получи 400 дублонов
Рейтинг торрент трекеров - UpTracker.ru

Гонка на вымирание / Racing Extinction (2015, документальный, BDRip 720p)

Сообщение Korsar » 17 дек 2016, 14:29

Гонка на вымирание / Racing Extinction

«Winning is the only option»

Русское название: Гонка на вымирание
Оригинальное название: Racing Extinction
Год выпуска: 2015
Жанр: документальный
Выпущено: США, Великобритания, Япония, Мексика, Гонконг, Китай, Индонезия
Режиссер: Луи Сахойос
В ролях: Элон Маск , Луи Сахойос , Джейн Гудолл , Лейлани Мюнтер , Чарльз Хэмблетон , Джоэль Сартор , Шон Хайнрихс , Travis Threlkel , Остин Ричардс , Хезер Доун Ралли , Пол Хилтон , Dr. Christopher W. Clark
Перевод: Профессиональный многоголосый

Сюжет фильма:
Группа энергичных и неравнодушных активистов поставила перед собой цель пролить свет на две основные угрозы живой природе на Земле. Первая исходит от международной торговли животными и растениями и всевозможных лже-лекарств и тоников, которые производятся в ущерб фауне и потом продаются, ставя под угрозу существование целых видов живых существ, населяющих нашу планету вот уже миллионы лет. Вторая - скрытые выбросы углекислого газа, смертельные для живых организмов.



Качество: BDRip 720p
Формат: AVC (библиотека кодирования x.264)
Контейнер (Расширение): MKV
Видео: 1280x720, 5331 Кбит/сек, 25 кадр/сек, 0,231 Бит/[Пиксели*Кадры]
Аудио №1: русский / AC3 / 2.0 / 48 kHz / 224 kbps / |Профессиональный многоголосый, АРК ТВ "Discovery"|
Аудио №2: английский / AC3 / 2.0 / 48 kHz / 448 kbps /
Субтитры: английские
Навигация по главам(Чаптеры): есть
Продолжительность: 01:27:30

Автор рипа: Сообщество:


Format : Matroska
Format version : Version 2
File size : 3.74 GiB
Duration : 1h 27mn
Overall bit rate : 6 125 Kbps
Movie name : Racing Extinction.(2015).BDRip.720p.[denis100]
Encoded date : UTC 2016-05-03 08:24:02
Writing application : mkvmerge v5.8.0 ('No Sleep / Pillow') built on Sep 2 2012 15:37:04
Writing library : libebml v1.2.3 + libmatroska v1.3.0

Video
ID : 1
Format : AVC
Format/Info : Advanced Video Codec
Format profile : High@L4.1
Format settings, CABAC : Yes
Format settings, ReFrames : 9 frames
Codec ID : V_MPEG4/ISO/AVC
Duration : 1h 27mn
Bit rate : 5 331 Kbps
Width : 1 280 pixels
Height : 720 pixels
Display aspect ratio : 16:9
Frame rate : 25.000 fps
Color space : YUV
Chroma subsampling : 4:2:0
Bit depth : 8 bits
Scan type : Progressive
Bits/(Pixel*Frame) : 0.231
Stream size : 3.26 GiB (87%)
Title : Racing Extinction.(2015).BDRip.720p.[denis100]
Writing library : x264 core 148 r2692 64f4e24
Encoding settings : cabac=1 / ref=9 / deblock=1:-3:-3 / analyse=0x3:0x133 / me=umh / subme=11 / psy=1 / psy_rd=1.00:0.00 / mixed_ref=1 / me_range=48 / chroma_me=1 / trellis=2 / 8x8dct=1 / cqm=0 / deadzone=21,11 / fast_pskip=0 / chroma_qp_offset=-2 / threads=6 / lookahead_threads=1 / sliced_threads=0 / nr=0 / decimate=1 / interlaced=0 / bluray_compat=0 / constrained_intra=0 / bframes=10 / b_pyramid=2 / b_adapt=2 / b_bias=0 / direct=3 / weightb=1 / open_gop=0 / weightp=2 / keyint=250 / keyint_min=25 / scenecut=40 / intra_refresh=0 / rc=crf / mbtree=0 / crf=17.9 / qcomp=0.60 / qpmin=0 / qpmax=69 / qpstep=4 / ip_ratio=1.40 / pb_ratio=1.30 / aq=1:1.00
Language : English
Default : Yes
Forced : No

Audio #1
ID : 2
Format : AC-3
Format/Info : Audio Coding 3
Format profile : Dolby Digital
Mode extension : CM (complete main)
Codec ID : A_AC3
Duration : 1h 27mn
Bit rate mode : Constant
Bit rate : 224 Kbps
Channel(s) : 2 channels
Channel positions : Front: L R
Sampling rate : 48.0 KHz
Bit depth : 16 bits
Compression mode : Lossy
Stream size : 140 MiB (4%)
Title : MVO - АРК ТВ "Discovery"
Language : Russian
Default : Yes
Forced : No

Audio #2
ID : 3
Format : AC-3
Format/Info : Audio Coding 3
Mode extension : CM (complete main)
Codec ID : A_AC3
Duration : 1h 27mn
Bit rate mode : Constant
Bit rate : 448 Kbps
Channel(s) : 2 channels
Channel positions : Front: L R
Sampling rate : 48.0 KHz
Bit depth : 16 bits
Compression mode : Lossy
Stream size : 280 MiB (7%)
Language : English
Default : No
Forced : No

Text
ID : 4
Format : UTF-8
Codec ID : S_TEXT/UTF8
Codec ID/Info : UTF-8 Plain Text
Language : English
Default : No
Forced : No

Menu
00:00:00.000 : en:Chapter 01
00:10:50.920 : en:Chapter 02
00:23:41.840 : en:Chapter 03
00:29:29.000 : en:Chapter 04
00:36:38.360 : en:Chapter 05
00:42:51.000 : en:Chapter 06
00:46:47.840 : en:Chapter 07
00:55:00.600 : en:Chapter 08
01:06:01.040 : en:Chapter 09
01:17:07.560 : en:Chapter 10
x264 [info]: frame I:1022 Avg QP:15.63 size: 97317
x264 [info]: frame P:30625 Avg QP:17.19 size: 48833
x264 [info]: frame B:99605 Avg QP:19.36 size: 19900

Боцман
КУБКИ

СТАЖ

МЕДАЛИ
Награды:32

За помощь проекту (2) Лучший по количеству кубков (2) За отличные раздачи и качество (13) За подробное оформление раздач (1) За отличные комментарии (1) Верный Сид (11) За участие в конкурсах/играх (2)

Аватара пользователя
СССР
Korsar
Заслуженный Корсар-Вип+
  • Торрент
Для скачивания торрента необходимо зарегистрироваться или войти на трекер.

Вернуться в Документальные фильмы и телепередачи (HD Video)



Uptime по данным Ping-Admin.Ru - сервиса мониторинга доступности сайтов
Рейтинг@Mail.ru Голосуйте за наш сайт в каталоге Rubo.Ru