logo
Международный русскоязычный
торрент-трекер
Menu
Doublon
Поделиться с друзьями: 
Голосуй за Корсар и получи 500 дублонов
Рейтинг торрент трекеров - UpTracker.ru

Годунов / Серии: 01-08 из 08 (2018, драма, история, HDTV 1080i)

Сообщение kisa1980 » 05 ноя 2018, 23:20

Название: Годунов
Год выпуска: 2018
Жанр: Драма, история
Выпущено: Россия, кинокомпании МОСКИНО по заказу телеканала Россия 1
Продолжительность: 8 х ~ 00:50:00
Язык: Русский
Режиссер: Алексей Андрианов, Тимур Алпатов
В ролях: Сергей Безруков, Светлана Ходченкова, Сергей Маковецкий, Виктор Сухоруков, Александр Устюгов, Мария Андреева, Андрей Мерзликин, Анна Михалкова, Фёдор Лавров, Владимир Стеклов, Ирина Пегова, Антон Кузнецов, Анна Ковальчук, Александр Горбатов (II), Евгений Цыганов, Александр Ильин, Юрий Беляев, Лев Прыгунов, Артём Алексеев (II), Александр Семчев, Евгений Ткачук, Борис Плотников, Сергей Никоненко, Станислав Говорухин, Юрий Колокольников, Екатерина Васильева, Диана Чечель, Юрий Коноплянников, Клим Бердинский, Лев Бердинский, Владимир Скробан, Ярослав Ефременко, Андрюс Паулавичюс, Вайдотас Мартинайтис, Ремигиюс Сабулис, Лаймутис Седжюс, Альбинас Келярис, Александр Пашутин, Николай Козак, Борис Клюев

О фильме: XVI век. Один из самых сложных и противоречивых периодов в истории страны. Тревожная и героическая эпоха Российского царства. Борьба за трон и неразделенная любовь, предательство и интриги, страсти и испытания эпохи – ставка в которой больше, чем жизнь. На кону – будущее Российского государства. В основе сериала реальные исторические события, охватывающие период со времен окончания правления Ивана Грозного и до восшествия на русский престол Михаила Федоровича Романова – первого царя из династии Романовых. В центре беспрецедентного исторического проекта – судьба рода Годуновых. Какую роль сыграют в этой драме сам Борис Годунов, его жена Мария Годунова, сестра Ирина и дочь Ксения, зрителям только предстоит узнать. Впереди – настоящие открытия! В Московском Кремле начинается отсчет последних дней правления Иоанна Грозного. Кто займет место на царском троне, как сложится судьба целого народа, кто способен провести Россию через Смутное время, и как любовь изменяет путь истории. Борис Годунов – бывший опричник и первый на Руси избранный царь. Как и почему, не будучи выходцем из знатного рода и не имея особого состояния, он смог пробиться на самый верх и стать сначала фактическим правителем России, а затем взойти на царский престол.



Качество: HDTV 1080i
Видео: MPEG-4 AVC, ~ 7051 Кбит/с, 1920x1080
Аудио: AC3 / 2.0 / 48 kHz / 192 kbps /
Субтитры: Нет


General
Unique ID : 230663566058227180682774630953920982295 (0xAD882FD85AEE1F608C0B6C2DE4636D17)
Complete name : E:Запись с твGodunov 2018.HDTV 1080p.RG GeneralFilmGodunov.s01.e01.2018.HDTV 1080p.by.White Smoke.R.G.Generalfilm.mkv
Format : Matroska
Format version : Version 4 / Version 2
File size : 2.53 GiB
Duration : 50 min
Overall bit rate mode : Constant
Overall bit rate : 7 164 kb/s
Movie name : Godunov.s01.e01.2018.HDTV 1080p.by.White Smoke.R.G.Generalfilm.mkv
Encoded date : UTC 2018-11-05 22:36:49
Writing application : mkvmerge v6.8.0 ('Theme for Great Cities') 64bit built on Mar 2 2014 21:34:26
Writing library : libebml v1.3.0 + libmatroska v1.4.1
Cover : Yes
Attachments : cover.png

Video
ID : 1
Format : AVC
Format/Info : Advanced Video Codec
Format profile : High@L4.1
Format settings, CABAC : Yes
Format settings, ReFrames : 3 frames
Format settings, GOP : M=3, N=33
Codec ID : V_MPEG4/ISO/AVC
Duration : 50 min
Bit rate mode : Constant
Bit rate : 7 051 kb/s
Width : 1 920 pixels
Height : 1 080 pixels
Display aspect ratio : 16:9
Frame rate mode : Constant
Frame rate : 25.000 FPS
Standard : PAL
Color space : YUV
Chroma subsampling : 4:2:0
Bit depth : 8 bits
Scan type : Progressive
Bits/(Pixel*Frame) : 0.136
Stream size : 2.41 GiB (95%)
Default : Yes
Forced : No
Color range : Limited
Color primaries : BT.709
Transfer characteristics : BT.709
Matrix coefficients : BT.709

Audio
ID : 2
Format : AC-3
Format/Info : Audio Coding 3
Mode extension : CM (complete main)
Format settings, Endianness : Big
Codec ID : A_AC3
Duration : 50 min
Bit rate mode : Constant
Bit rate : 192 kb/s
Channel(s) : 2 channels
Channel positions : Front: L R
Sampling rate : 48.0 kHz
Frame rate : 31.250 FPS (1536 spf)
Compression mode : Lossy
Stream size : 69.3 MiB (3%)
Default : Yes
Forced : No
КУБКИ

СТАЖ

МЕДАЛИ
Награды:80

За помощь проекту (9) Лучший по количеству кубков (3) За отличные раздачи и качество (26) За подробное оформление раздач (5) За отличные комментарии (7) Почётный форумчанин (5) Верный Сид (21) За участие в конкурсах/играх (2)

Аватара пользователя
Тортуга
kisa1980
Главный помощник Администратора-Корсар
  • Торрент
Для скачивания торрента необходимо зарегистрироваться или войти на трекер.

Сообщение balu » 05 ноя 2018, 23:53

Спасибо :hi:
СТАЖ

МЕДАЛИ
Награды:1

Верный Сид (1)

Аватара пользователя
Russia
balu
Опытный Корсар


Вернуться в Отечественные сериалы (HD Video)



Uptime по данным Ping-Admin.Ru - сервиса мониторинга доступности сайтов
Рейтинг@Mail.ru Голосуйте за наш сайт в каталоге Rubo.Ru