logo
Международный русскоязычный
торрент-трекер
Menu

Doublon
Поделиться с друзьями: 
Голосуй за Корсар и получи 400 дублонов
Рейтинг торрент трекеров - UpTracker.ru

Годунов / Серии: 01-02 из 16 (2018, драма, история, HDTV 1080i)

Сообщение kisa1980 » 05 ноя 2018, 23:20

Название: Годунов
Год выпуска: 2018
Жанр: Драма, история
Выпущено: Россия, кинокомпании МОСКИНО по заказу телеканала Россия 1
Продолжительность: 2 х ~ 00:50:00
Язык: Русский
Режиссер: Алексей Андрианов, Тимур Алпатов
В ролях: Сергей Безруков, Светлана Ходченкова, Сергей Маковецкий, Виктор Сухоруков, Александр Устюгов, Мария Андреева, Андрей Мерзликин, Анна Михалкова, Фёдор Лавров, Владимир Стеклов, Ирина Пегова, Антон Кузнецов, Анна Ковальчук, Александр Горбатов (II), Евгений Цыганов, Александр Ильин, Юрий Беляев, Лев Прыгунов, Артём Алексеев (II), Александр Семчев, Евгений Ткачук, Борис Плотников, Сергей Никоненко, Станислав Говорухин, Юрий Колокольников, Екатерина Васильева, Диана Чечель, Юрий Коноплянников, Клим Бердинский, Лев Бердинский, Владимир Скробан, Ярослав Ефременко, Андрюс Паулавичюс, Вайдотас Мартинайтис, Ремигиюс Сабулис, Лаймутис Седжюс, Альбинас Келярис, Александр Пашутин, Николай Козак, Борис Клюев

О фильме: XVI век. Один из самых сложных и противоречивых периодов в истории страны. Тревожная и героическая эпоха Российского царства. Борьба за трон и неразделенная любовь, предательство и интриги, страсти и испытания эпохи – ставка в которой больше, чем жизнь. На кону – будущее Российского государства. В основе сериала реальные исторические события, охватывающие период со времен окончания правления Ивана Грозного и до восшествия на русский престол Михаила Федоровича Романова – первого царя из династии Романовых. В центре беспрецедентного исторического проекта – судьба рода Годуновых. Какую роль сыграют в этой драме сам Борис Годунов, его жена Мария Годунова, сестра Ирина и дочь Ксения, зрителям только предстоит узнать. Впереди – настоящие открытия! В Московском Кремле начинается отсчет последних дней правления Иоанна Грозного. Кто займет место на царском троне, как сложится судьба целого народа, кто способен провести Россию через Смутное время, и как любовь изменяет путь истории. Борис Годунов – бывший опричник и первый на Руси избранный царь. Как и почему, не будучи выходцем из знатного рода и не имея особого состояния, он смог пробиться на самый верх и стать сначала фактическим правителем России, а затем взойти на царский престол.



Качество: HDTV 1080i
Видео: MPEG-4 AVC, ~ 7100 Кбит/с, 1920x1080
Аудио: MP2, 2 ch, 192 Кбит/с
Субтитры: Нет


Общее
Идентификатор : 1 (0x1)
Полное имя : Godunov.2018.HDTV.1080i\Godunov.01.2018.HDTV.1080i.ts
Формат : MPEG-TS
Размер файла : 2,70 Гбайт
Продолжительность : 50 м. 34 с.
Режим общего битрейта : Переменный
Общий поток : 7646 Кбит/сек

Видео
Идентификатор : 2911 (0xB5F)
Идентификатор меню : 1192 (0x4A8)
Формат : AVC
Формат/Информация : Advanced Video Codec
Профиль формата : High@L4
Параметр CABAC формата : Да
Параметр RefFrames формата : 4 кадра
Идентификатор кодека : 27
Продолжительность : 50 м. 34 с.
Битрейт : 7075 Кбит/сек
Ширина : 1920 пикселей
Высота : 1080 пикселей
Соотношение сторон : 16:9
Частота кадров : 25,000 кадров/сек
Цветовое пространство : YUV
Субдискретизация насыщенности : 4:2:0
Битовая глубина : 8 бит
Тип развёртки : MBAFF
Метод сохранения типа развёртки : Чередующиеся поля
Порядок развёртки : Верхнее поле первое
Бит/(Пиксели*Кадры) : 0.136
Размер потока : 2,50 Гбайт (93%)

Аудио
Идентификатор : 2912 (0xB60)
Идентификатор меню : 1192 (0x4A8)
Формат : MPEG Audio
Версия формата : Version 1
Профиль формата : Layer 2
Режим : Joint stereo
Расширение режима : Intensity Stereo + MS Stereo
Идентификатор кодека : 3
Продолжительность : 50 м. 34 с.
Вид битрейта : Постоянный
Битрейт : 192 Кбит/сек
Каналы : 2 канала
Частота : 48,0 КГц
Метод сжатия : С потерями
Задержка видео : -40 мс.
Размер потока : 69,5 Мбайт (3%)
Язык : Russian
КУБКИ

СТАЖ

МЕДАЛИ
Награды:50

За помощь проекту (7) Лучший по количеству кубков (3) За отличные раздачи и качество (16) За подробное оформление раздач (4) За отличные комментарии (4) Почётный форумчанин (3) Верный Сид (9) За участие в конкурсах/играх (2)

Аватара пользователя
Тортуга
kisa1980
Главный помощник Администратора-Корсар
  • Торрент
Для скачивания торрента необходимо зарегистрироваться или войти на трекер.

Сообщение balu » 05 ноя 2018, 23:53

Спасибо :hi:
СТАЖ

МЕДАЛИ
Награды:1

Верный Сид (1)

Аватара пользователя
Russia
balu
Опытный Корсар


Вернуться в Отечественные сериалы (HD Video)



Uptime по данным Ping-Admin.Ru - сервиса мониторинга доступности сайтов
Рейтинг@Mail.ru Голосуйте за наш сайт в каталоге Rubo.Ru