logo
Международный русскоязычный
торрент-трекер
Menu
Поделиться с друзьями: 
Голосуй за Корсар и получи 500 дублонов
Рейтинг торрент трекеров - UpTracker.ru

Географ глобус пропил (2013, Драма, BDRip-AVC)

Сообщение Korsar » 16 фев 2017, 23:00

Географ глобус пропил
Жанр: Драма
Год выпуска: 2013
Продолжительность: 02:04:51

Режиссёр: Александр Велединский

В ролях: Константин Хабенский, Елена Лядова, Александр Робак, Евгения Брик (Хиривская), Анна Уколова, Евгения Крегжде, Агриппина Стеклова, Максим Лагашкин, Анфиса Черных, Андрей Прытков

Описание: Молодой биолог Виктор Служкин от безденежья идет работать учителем географии в обычную пермскую школу. Он борется, а потом и дружит с учениками, конфликтует с завучем, ведет девятиклассников в поход — сплавляться по реке. Еще он пьет с друзьями вино, пытается ужиться с женой и водит в детский сад маленькую дочку. Он просто живет… Фильм снят по мотивам романа Алексея Иванова «Географ глобус пропил» (написано в 1995 году, опубликовано в 2003 году).

Качество видео: BDRip-AVC
Формат видео: MKV

Видео: 1024x428 (2.40:1), 24 fps, MPEG-4 AVc ~2050 kbps avg, 0.195 bit/pixel
Аудио: 48 kHz, AC3 Dolby Digital, 3/2 (L,C,R,l,r) + LFE ch, ~448 kbps
Общее
Уникальный идентификатор : 184488346671607214802418412166726959398 (0x8ACB29C2878B615F9233961FEF7E4126)
Полное имя : K:\Geograf.globus.propil.2013.576p.BluRay.mkv
Формат : Matroska
Версия формата : Version 4 / Version 2
Размер файла : 2,18 Гбайт
Продолжительность : 2 ч. 4 м.
Общий поток : 2496 Кбит/сек
Название фильма : Географ глобус пропил / 2013 -=NN@LIFE=-
Дата кодирования : UTC 2013-12-25 02:50:32
Программа кодирования : mkvmerge v6.6.0 ('The Edge Of The In Between') built on Dec 1 2013 17:55:00
Библиотека кодирования : libebml v1.3.0 + libmatroska v1.4.1

Видео
Идентификатор : 1
Формат : AVC
Формат/Информация : Advanced Video Codec
Профиль формата : High@L4.1
Параметр CABAC формата : Да
Параметр ReFrames формата : 8 кадров
Идентификатор кодека : V_MPEG4/ISO/AVC
Продолжительность : 2 ч. 4 м.
Битрейт : 2050 Кбит/сек
Ширина : 1024 пикселя
Высота : 428 пикселей
Соотношение сторон : 2,40:1
Режим частоты кадров : Постоянный
Частота кадров : 24,000 кадра/сек
Цветовое пространство : YUV
Субдискретизация насыщенности : 4:2:0
Битовая глубина : 8 бит
Тип развёртки : Прогрессивная
Бит/(Пиксели*Кадры) : 0.195
Размер потока : 1,74 Гбайт (80%)
Заголовок : Rip by nnlabetik
Библиотека кодирования : x264 core 138 r2358 9e941d1
Настройки программы : cabac=1 / ref=8 / deblock=1:-2:-1 / analyse=0x3:0x113 / me=umh / subme=11 / psy=1 / psy_rd=1.00:0.00 / mixed_ref=1 / me_range=32 / chroma_me=1 / trellis=2 / 8x8dct=1 / cqm=1 / deadzone=21,11 / fast_pskip=1 / chroma_qp_offset=-2 / threads=6 / lookahead_threads=1 / sliced_threads=0 / nr=0 / decimate=1 / interlaced=0 / bluray_compat=0 / constrained_intra=0 / bframes=11 / b_pyramid=2 / b_adapt=2 / b_bias=0 / direct=3 / weightb=1 / open_gop=0 / weightp=2 / keyint=240 / keyint_min=23 / scenecut=40 / intra_refresh=0 / rc_lookahead=50 / rc=2pass / mbtree=0 / bitrate=2050 / ratetol=1.0 / qcomp=0.70 / qpmin=3 / qpmax=69 / qpstep=4 / cplxblur=20.0 / qblur=0.5 / vbv_maxrate=50000 / vbv_bufsize=62500 / nal_hrd=none / ip_ratio=1.40 / pb_ratio=1.30 / aq=1:1.00
Язык : Russian
Default : Да
Forced : Нет

Аудио
Идентификатор : 2
Формат : AC-3
Формат/Информация : Audio Coding 3
Расширение режима : CM (complete main)
Параметр Endianness формата : Big
Идентификатор кодека : A_AC3
Продолжительность : 2 ч. 4 м.
Вид битрейта : Постоянный
Битрейт : 448 Кбит/сек
Каналы : 6 каналов
Расположение каналов : Front: L C R, Side: L R, LFE
Частота : 48,0 КГц
Битовая глубина : 16 бит
Метод сжатия : С потерями
Размер потока : 400 Мбайт (18%)
Язык : Russian
Default : Да
Forced : Нет

Меню
00:00:00.000 : en:Chapter 01
00:12:18.708 : en:Chapter 02
00:18:58.291 : en:Chapter 03
00:27:08.541 : en:Chapter 04
00:35:54.125 : en:Chapter 05
00:45:32.458 : en:Chapter 06
00:53:58.333 : en:Chapter 07
01:02:12.333 : en:Chapter 08
01:12:47.416 : en:Chapter 09
01:20:55.041 : en:Chapter 10
01:29:32.583 : en:Chapter 11
01:36:47.916 : en:Chapter 12
01:44:25.291 : en:Chapter 13
01:52:39.250 : en:Chapter 14
01:57:48.916 : en:Chapter 15
02:04:51.583 : en:Chapter 16
КУБКИ

СТАЖ

МЕДАЛИ
Награды:18

Пожизненный VIP+ (1) За активную помощь проекту (1) Лучший по количеству кубков (1) За отличные раздачи и качество (7) За отличные комментарии (4) Почётный форумчанин (2) Верный Сид (2)

Аватара пользователя
СССР
Korsar
Заслуженный Корсар-VIP+
  • Торрент
Для скачивания торрента необходимо зарегистрироваться или войти на трекер.

Сообщение Lonrak1975 » 25 июл 2018, 20:11

Один из лучших российских фильмов.Современный вариант "Полетов во сне и наяву"... Режиссура, актеры подбор/игра, операторская работа, музыка/саундтрек всё на отлично.Молодежь тянется, довольно таки натурально играют свои роли. Хабенский-хорош. Кино не для всех,но очень жизненное:здесь нет дешёвых гламурниньких штучек...здесь просто проза жизни...хотя в реалии она встречается намного суровей,но съёмки(природы особенно) отличные.Фильм про жизнь как она есть сегодня....людям после 30 рекомендую, до нет.Спасибо Korsar за релиз!
КУБКИ

СТАЖ

МЕДАЛИ
Награды:38

За помощь проекту в 200 рублей (1) За помощь проекту в 300 рублей (2) Лучший по количеству кубков (5) За отличные комментарии (25) Почётный форумчанин (1) Верный Сид (4)

Аватара пользователя
СССР
Lonrak1975
Заслуженный Корсар

Сообщение poletov » 10 июл 2020, 07:59

Биолог пошел учителем в школу,а там современные дети,которые... "Я хожу в школу,как на войну" (как-то мне сказала одна учительница и я мог бы не поверить,если бы какое-то время не проработал в школе).Я немного отвлекся,но все в тему.Поход на природу учителя и школьников изменил всех.Хабенский хорош.Рекомендую фильм к просмотру.
КУБКИ

СТАЖ

МЕДАЛИ
Награды:21

За отличные раздачи и качество (1) За отличные комментарии (17) Почётный форумчанин (2) Верный Сид (1)

Аватара пользователя
Russia
poletov
Заслуженный Корсар


Вернуться в Наше современное кино



Рейтинг@Mail.ru