logo
Международный русскоязычный
торрент-трекер
Menu
Doublon
Поделиться с друзьями: 
Голосуй за Корсар и получи 400 дублонов
Рейтинг торрент трекеров - UpTracker.ru

Форрест Гамп / Forrest Gump (1994, драма, мелодрама, BDRip 720p) - KORSAR | Source in 4K

Сообщение filbi1976 » 18 июн 2018, 09:06

Форрест Гамп / Forrest Gump

Год выхода: 1994
Страна: США
Студия: Paramount Pictures
Продолжительность: 02:22:09
Жанр: драма, мелодрама
Режиссер: Роберт Земекис
В ролях: Том Хэнкс, Робин Райт, Гэри Синиз, Майкелти Уильямсон, Салли Филд, Ребекка Уильямс, Майкл Коннер Хэмпфри, Хейли Джоэл Осмент, Харольд Дж. Хертэм, Джордж Келли, Боб Пенни, Джон Рэндолл, Сэм Андерсон, Марго Мурер, Иона М. Телек, Кристин Сибрук, Питер Добсон, Шиван Фэллон, ...

О фильме: От лица главного героя Форреста Гампа, слабоумного безобидного человека с благородным и открытым сердцем, рассказывается история его необыкновенной жизни.
Фантастическим образом превращается он в известного футболиста, героя войны, преуспевающего бизнесмена. Он становится миллиардером, но остается таким же бесхитростным, глупым и добрым. Форреста ждет постоянный успех во всем, а он любит девочку, с которой дружил в детстве, но взаимность приходит слишком поздно…



Кодек: x264
Качество: BDRip 720p (исходник UHD 2160p HDR)
Видео: MPEG-4 AVC, 1280x536, 23,976 fps, 7000 kbps,
Аудио №1: AC3, 6 ch, 640 Кбит/сек, CBR, 48,0 КГц (Русский, MVO (Позитив-Мультимедия))
Аудио №2: AC3, 6 ch, 448 Кбит/сек, CBR, 48,0 КГц (Русский, MVO (Киномания/FDV))
Аудио №3: AC3, 6 ch, 640 Кбит/сек, CBR, 48,0 КГц (Русский, MVO (Медиа-Комплекс))
Аудио №4: AC3, 6 ch, 384 Кбит/сек, CBR, 48,0 КГц (Русский, MVO (НТВ+))
Аудио №5: AC3, 2 ch, 192 Кбит/сек, CBR, 48,0 КГц (Русский, MVO (Премьер Видео Фильм))
Аудио №6: AC3, 2 ch, 192 Кбит/сек, CBR, 48,0 КГц (Русский, MVO (СТС/РТР))
Аудио №7: AC3, 6 ch, 448 Кбит/сек, CBR, 48,0 КГц (Русский, MVO (Universal Pictures Rus))
Аудио №8: AC3, 2 ch, 192 Кбит/сек, CBR, 48,0 КГц (Русский, AVO (Сергей Визгунов))
Аудио №9: AC3, 6 ch, 640 Кбит/сек, CBR, 48,0 КГц (Русский, AVO (Андрей Гаврилов))
Аудио №10: AC3, 2 ch, 192 Кбит/сек, CBR, 48,0 КГц (Русский, AVO (Василий Горчаков))
Аудио №11: AC3, 2 ch, 192 Кбит/сек, CBR, 48,0 КГц (Русский, AVO (Александр Кашкин))
Аудио №12: AC3, 6 ch, 640 Кбит/сек, CBR, 48,0 КГц (Русский, AVO (Юрий Сербин))
Аудио №13: AC3, 6 ch, 640 Кбит/сек, CBR, 48,0 КГц (Английский, оригинал)
Субтитры: Русские, Английские


  • x264 [info]: frame I:1253 Avg QP:14.03 size:189217
  • x264 [info]: frame P:48620 Avg QP:17.46 size: 70803
  • x264 [info]: frame B:154605 Avg QP:19.32 size: 24467
  • x264 [info]: consecutive B-frames: 3.4% 4.0% 8.2% 20.9% 20.4% 36.0% 3.7% 1.7% 0.7% 0.5% 0.4% 0.2%
Общее
Уникальный идентификатор : 254282194874785458180509170779033276715 (0xBF4CF826E35D63C0B57CE57573D9912B)
Полное имя : D:\Форрест Гамп_1994-BDRip 720p_KORSAR.mkv
Формат : Matroska
Версия формата : Version 2
Размер файла : 12,4 Гбайт
Продолжительность : 2 ч. 22 м.
Общий поток : 12,4 Мбит/сек
Название фильма : Форрест Гамп_1994-BDRip 720p_KORSAR
Дата кодирования : UTC 2018-06-18 17:04:12
Программа кодирования : mkvmerge v5.8.0 ('No Sleep / Pillow') built on Sep 2 2012 15:37:04
Библиотека кодирования : libebml v1.2.3 + libmatroska v1.3.0

Видео
Идентификатор : 1
Формат : AVC
Формат/Информация : Advanced Video Codec
Профиль формата : High@L4.1
Параметр CABAC формата : Да
Параметр RefFrames формата : 12 кадров
Идентификатор кодека : V_MPEG4/ISO/AVC
Продолжительность : 2 ч. 22 м.
Битрейт : 7000 Кбит/сек
Ширина : 1280 пикселей
Высота : 536 пикселей
Соотношение сторон : 2,40:1
Режим частоты кадров : Постоянный
Частота кадров : 23,976 (24000/1001) кадра/сек
Цветовое пространство : YUV
Субдискретизация насыщенности : 4:2:0
Битовая глубина : 8 бит
Тип развёртки : Прогрессивная
Бит/(Пиксели*Кадры) : 0.426
Размер потока : 6,71 Гбайт (54%)
Библиотека кодирования : x264 core 152 r2851kMod ba24899
Настройки программы : cabac=1 / ref=12 / deblock=1:-3:-3 / analyse=0x3:0x113 / me=umh / subme=10 / psy=1 / fade_compensate=0.00 / psy_rd=1.05:0.10 / mixed_ref=1 / me_range=48 / chroma_me=1 / trellis=2 / 8x8dct=1 / cqm=0 / deadzone=21,11 / fast_pskip=0 / chroma_qp_offset=-3 / threads=12 / lookahead_threads=3 / sliced_threads=0 / nr=0 / decimate=0 / interlaced=0 / bluray_compat=0 / constrained_intra=0 / bframes=11 / b_pyramid=2 / b_adapt=2 / b_bias=0 / direct=3 / weightb=1 / open_gop=0 / weightp=2 / keyint=240 / keyint_min=23 / scenecut=40 / intra_refresh=0 / rc=2pass / mbtree=0 / bitrate=7000 / ratetol=1.0 / qcomp=0.63 / qpmin=0 / qpmax=39 / qpstep=4 / cplxblur=20.0 / qblur=0.5 / ip_ratio=1.40 / pb_ratio=1.30 / aq=3:0.80
Язык : English
Default : Да
Forced : Нет
Цветовой диапазон : Limited
Основные цвета : BT.709
Характеристики трансфера : BT.709
Коэффициенты матрицы : BT.709

Аудио #1
Идентификатор : 2
Формат : AC-3
Формат/Информация : Audio Coding 3
Параметр Endianness формата : Big
Идентификатор кодека : A_AC3
Продолжительность : 2 ч. 22 м.
Вид битрейта : Постоянный
Битрейт : 640 Кбит/сек
Каналы : 6 каналов
Расположение каналов : Front: L C R, Side: L R, LFE
Частота : 48,0 КГц
Частота кадров : 31,250 кадров/сек (1536 SPF)
Битовая глубина : 16 бит
Метод сжатия : С потерями
Размер потока : 651 Мбайт (5%)
Заголовок : MVO-Позитив-Мультимедия
Язык : Russian
ServiceKind/String : Complete Main
Default : Да
Forced : Нет

Аудио #2
Идентификатор : 3
Формат : AC-3
Формат/Информация : Audio Coding 3
Параметр Endianness формата : Big
Идентификатор кодека : A_AC3
Продолжительность : 2 ч. 22 м.
Вид битрейта : Постоянный
Битрейт : 448 Кбит/сек
Каналы : 6 каналов
Расположение каналов : Front: L C R, Side: L R, LFE
Частота : 48,0 КГц
Частота кадров : 31,250 кадров/сек (1536 SPF)
Битовая глубина : 16 бит
Метод сжатия : С потерями
Размер потока : 456 Мбайт (4%)
Заголовок : MVO-Киномания
Язык : Russian
ServiceKind/String : Complete Main
Default : Нет
Forced : Нет

Аудио #3
Идентификатор : 4
Формат : AC-3
Формат/Информация : Audio Coding 3
Параметр Endianness формата : Big
Идентификатор кодека : A_AC3
Продолжительность : 2 ч. 22 м.
Вид битрейта : Постоянный
Битрейт : 640 Кбит/сек
Каналы : 6 каналов
Расположение каналов : Front: L C R, Side: L R, LFE
Частота : 48,0 КГц
Частота кадров : 31,250 кадров/сек (1536 SPF)
Битовая глубина : 16 бит
Метод сжатия : С потерями
Размер потока : 651 Мбайт (5%)
Заголовок : MVO-Медиа-Комплекс
Язык : Russian
ServiceKind/String : Complete Main
Default : Нет
Forced : Нет

Аудио #4
Идентификатор : 5
Формат : AC-3
Формат/Информация : Audio Coding 3
Параметр Endianness формата : Big
Идентификатор кодека : A_AC3
Продолжительность : 2 ч. 22 м.
Вид битрейта : Постоянный
Битрейт : 384 Кбит/сек
Каналы : 6 каналов
Расположение каналов : Front: L C R, Side: L R, LFE
Частота : 48,0 КГц
Частота кадров : 31,250 кадров/сек (1536 SPF)
Битовая глубина : 16 бит
Метод сжатия : С потерями
Размер потока : 390 Мбайт (3%)
Заголовок : MVO-НТВ+
Язык : Russian
ServiceKind/String : Complete Main
Default : Нет
Forced : Нет

Аудио #5
Идентификатор : 6
Формат : AC-3
Формат/Информация : Audio Coding 3
Параметр Endianness формата : Big
Идентификатор кодека : A_AC3
Продолжительность : 2 ч. 22 м.
Вид битрейта : Постоянный
Битрейт : 192 Кбит/сек
Каналы : 2 канала
Расположение каналов : Front: L R
Частота : 48,0 КГц
Частота кадров : 31,250 кадров/сек (1536 SPF)
Битовая глубина : 16 бит
Метод сжатия : С потерями
Размер потока : 195 Мбайт (2%)
Заголовок : MVO-Премьер Видео фильм
Язык : Russian
ServiceKind/String : Complete Main
Default : Нет
Forced : Нет

Аудио #6
Идентификатор : 7
Формат : AC-3
Формат/Информация : Audio Coding 3
Параметр Endianness формата : Big
Идентификатор кодека : A_AC3
Продолжительность : 2 ч. 22 м.
Вид битрейта : Постоянный
Битрейт : 192 Кбит/сек
Каналы : 2 канала
Расположение каналов : Front: L R
Частота : 48,0 КГц
Частота кадров : 31,250 кадров/сек (1536 SPF)
Битовая глубина : 16 бит
Метод сжатия : С потерями
Размер потока : 195 Мбайт (2%)
Заголовок : MVO-СТС/РТР
Язык : Russian
ServiceKind/String : Complete Main
Default : Нет
Forced : Нет

Аудио #7
Идентификатор : 8
Формат : AC-3
Формат/Информация : Audio Coding 3
Параметр Endianness формата : Big
Идентификатор кодека : A_AC3
Продолжительность : 2 ч. 22 м.
Вид битрейта : Постоянный
Битрейт : 448 Кбит/сек
Каналы : 6 каналов
Расположение каналов : Front: L C R, Side: L R, LFE
Частота : 48,0 КГц
Частота кадров : 31,250 кадров/сек (1536 SPF)
Битовая глубина : 16 бит
Метод сжатия : С потерями
Размер потока : 456 Мбайт (4%)
Заголовок : MVO-Universal Pictures
Язык : Russian
ServiceKind/String : Complete Main
Default : Нет
Forced : Нет

Аудио #8
Идентификатор : 9
Формат : AC-3
Формат/Информация : Audio Coding 3
Параметр Endianness формата : Big
Идентификатор кодека : A_AC3
Продолжительность : 2 ч. 22 м.
Вид битрейта : Постоянный
Битрейт : 192 Кбит/сек
Каналы : 2 канала
Расположение каналов : Front: L R
Частота : 48,0 КГц
Частота кадров : 31,250 кадров/сек (1536 SPF)
Битовая глубина : 16 бит
Метод сжатия : С потерями
Размер потока : 195 Мбайт (2%)
Заголовок : AVO-Сергей Визгунов
Язык : Russian
ServiceKind/String : Complete Main
Default : Нет
Forced : Нет

Аудио #9
Идентификатор : 10
Формат : AC-3
Формат/Информация : Audio Coding 3
Параметр Endianness формата : Big
Идентификатор кодека : A_AC3
Продолжительность : 2 ч. 22 м.
Вид битрейта : Постоянный
Битрейт : 640 Кбит/сек
Каналы : 6 каналов
Расположение каналов : Front: L C R, Side: L R, LFE
Частота : 48,0 КГц
Частота кадров : 31,250 кадров/сек (1536 SPF)
Битовая глубина : 16 бит
Метод сжатия : С потерями
Размер потока : 651 Мбайт (5%)
Заголовок : AVO-Андрей Гаврилов
Язык : Russian
ServiceKind/String : Complete Main
Default : Нет
Forced : Нет

Аудио #10
Идентификатор : 11
Формат : AC-3
Формат/Информация : Audio Coding 3
Параметр Endianness формата : Big
Идентификатор кодека : A_AC3
Продолжительность : 2 ч. 22 м.
Вид битрейта : Постоянный
Битрейт : 192 Кбит/сек
Каналы : 2 канала
Расположение каналов : Front: L R
Частота : 48,0 КГц
Частота кадров : 31,250 кадров/сек (1536 SPF)
Битовая глубина : 16 бит
Метод сжатия : С потерями
Размер потока : 195 Мбайт (2%)
Заголовок : AVO-Василий Горчаков
Язык : Russian
ServiceKind/String : Complete Main
Default : Нет
Forced : Нет

Аудио #11
Идентификатор : 12
Формат : AC-3
Формат/Информация : Audio Coding 3
Параметр Endianness формата : Big
Идентификатор кодека : A_AC3
Продолжительность : 2 ч. 22 м.
Вид битрейта : Постоянный
Битрейт : 192 Кбит/сек
Каналы : 2 канала
Расположение каналов : Front: L R
Частота : 48,0 КГц
Частота кадров : 31,250 кадров/сек (1536 SPF)
Битовая глубина : 16 бит
Метод сжатия : С потерями
Размер потока : 195 Мбайт (2%)
Заголовок : AVO-Александр Кашкин
Язык : Russian
ServiceKind/String : Complete Main
Default : Нет
Forced : Нет

Аудио #12
Идентификатор : 13
Формат : AC-3
Формат/Информация : Audio Coding 3
Параметр Endianness формата : Big
Идентификатор кодека : A_AC3
Продолжительность : 2 ч. 22 м.
Вид битрейта : Постоянный
Битрейт : 640 Кбит/сек
Каналы : 6 каналов
Расположение каналов : Front: L C R, Side: L R, LFE
Частота : 48,0 КГц
Частота кадров : 31,250 кадров/сек (1536 SPF)
Битовая глубина : 16 бит
Метод сжатия : С потерями
Размер потока : 651 Мбайт (5%)
Заголовок : AVO-Юрий Сербин
Язык : Russian
ServiceKind/String : Complete Main
Default : Нет
Forced : Нет

Аудио #13
Идентификатор : 14
Формат : AC-3
Формат/Информация : Audio Coding 3
Параметр Endianness формата : Big
Идентификатор кодека : A_AC3
Продолжительность : 2 ч. 22 м.
Вид битрейта : Постоянный
Битрейт : 640 Кбит/сек
Каналы : 6 каналов
Расположение каналов : Front: L C R, Side: L R, LFE
Частота : 48,0 КГц
Частота кадров : 31,250 кадров/сек (1536 SPF)
Битовая глубина : 16 бит
Метод сжатия : С потерями
Размер потока : 651 Мбайт (5%)
Язык : English
ServiceKind/String : Complete Main
Default : Нет
Forced : Нет

Текст #1
Идентификатор : 15
Формат : UTF-8
Идентификатор кодека : S_TEXT/UTF8
Идентификатор кодека/Информация : UTF-8 Plain Text
Заголовок : Позитив-Мультимедия
Язык : Russian
Default : Нет
Forced : Нет

Текст #2
Идентификатор : 16
Формат : UTF-8
Идентификатор кодека : S_TEXT/UTF8
Идентификатор кодека/Информация : UTF-8 Plain Text
Язык : Russian
Default : Нет
Forced : Нет

Текст #3
Идентификатор : 17
Формат : UTF-8
Идентификатор кодека : S_TEXT/UTF8
Идентификатор кодека/Информация : UTF-8 Plain Text
Язык : English
Default : Нет
Forced : Нет

Текст #4
Идентификатор : 18
Формат : UTF-8
Идентификатор кодека : S_TEXT/UTF8
Идентификатор кодека/Информация : UTF-8 Plain Text
Заголовок : SDH
Язык : English
Default : Нет
Forced : Нет

Меню
00:00:00.000 : en:I'm Forrest...Forrest Gump
00:06:43.570 : en:Mama
00:12:24.577 : en:Like Peas and Carrots
00:19:56.946 : en:Run Forrest Run!
00:31:13.705 : en:Private Gump
00:40:40.188 : en:Lieutenant Dan
00:44:18.114 : en:My Best Good Friend
00:56:34.474 : en:Wounded in the Buttocks
01:03:32.267 : en:You're My Girl
01:13:34.076 : en:National Celebrity
01:17:02.827 : en:Happy New Year
01:23:52.277 : en:Shrimp Boat Captain
01:34:59.944 : en:Bubba Gump
01:38:55.596 : en:Mamma's Trip to Heaven
01:43:52.893 : en:Jenny Comes Home
01:51:28.307 : en:A Little Run
01:58:54.711 : en:Forrest Meets Forrest
02:04:48.564 : en:Beloved Mother, Wife and Friend
02:15:25.200 : en:Credits


Сравнение со старым вариантом 720р
КУБКИ

СТАЖ

МЕДАЛИ
Награды:69

За помощь проекту (1) За отличные раздачи и качество (50) За отличные комментарии (1) Верный Сид (14) За участие в конкурсах/играх (1)

Аватара пользователя
Тортуга
filbi1976
Администратор-Корсар
Раздачи группы KORSAR разрешено перезаливать спустя сутки после публикации
  • Торрент
Для скачивания торрента необходимо зарегистрироваться или войти на трекер.

Сообщение verybigpapa » 18 июн 2018, 20:57

Классный фильм! :good: :10 balov: Огромное спасибо, уважаемый filbi1976! :hi: :respect:
Улыбайтесь, господа! Улыбайтесь!
КУБКИ

СТАЖ

МЕДАЛИ
Награды:40

За помощь проекту (15) Лучший по количеству кубков (9) За отличные комментарии (5) Верный Сид (11)

Аватара пользователя
СССР
verybigpapa
Заслуженный Корсар-Вип

Сообщение MOCKBAcity » 18 июн 2018, 23:01

filbi1976, спасибо за труд! Для Вас моя Джига! ♫♪♫♪♫♪♫♪
Вопрос: MOCKBAcity, ты кому язык показываешь?
Ответ: Главное, под стол не заглядывайте!
КУБКИ

СТАЖ

МЕДАЛИ
Награды:6

За отличные комментарии (1) Верный Сид (5)

Аватара пользователя
MOCKBAcity
Уважаемый Корсар

Сообщение filbi1976 » 10 авг 2018, 13:30

Всем пожалуйста! :hi:


Тема поднималась пользователем filbi1976 10 авг 2018, 13:30.
КУБКИ

СТАЖ

МЕДАЛИ
Награды:69

За помощь проекту (1) За отличные раздачи и качество (50) За отличные комментарии (1) Верный Сид (14) За участие в конкурсах/играх (1)

Аватара пользователя
Тортуга
filbi1976
Администратор-Корсар


Вернуться в Зарубежное кино (1991-2000 / HD Video)



Uptime по данным Ping-Admin.Ru - сервиса мониторинга доступности сайтов
Рейтинг@Mail.ru Голосуйте за наш сайт в каталоге Rubo.Ru