logo
Международный русскоязычный
торрент-трекер
Menu
"Бунт на корабле", за скачанные торрент-файлы дублоны не снимаются. Возможность оплачена пользователем gros.
Doublon
Поделиться с друзьями: 
Голосуй за Корсар и получи 500 дублонов
Рейтинг торрент трекеров - UpTracker.ru

Форпост (2007, Документальный, православие, DVDRip-AVC) - KORSAR

Сообщение Sanechek » 09 фев 2017, 09:44

Название: Форпост
Год выхода: 2007
Жанр: Документальный, православие
Режиссер: Михаил Шадрин

О фильме: «Форпост» - это фильм откровение. Фильм – проверка на душевную вшивость. Сумел досмотреть до финала, значит сердце еще не заросло мхом, и ты еще не окончательно отделился от мира броней ороговевшей кожи. Фильм о чуде. Реальном и абсолютно не сказочном. Фильм об исцелении совершенно больных детей и об исцелении взрослых. Уже давно, особенно в кинематографе, понятие «герой» это безжалостный и решительный комок мышц. Оказывается можно и по другому. Не скулить, не жаловаться на здоровье, а стиснув зубы делать добро. Тем более, что его сейчас так мало. Ведь мы до сих пор не знаем, что такое жизнь: временная командировка перед погружением в вечность или пешая прогулка из пункта «А» в пункт «Б»...



Выпущено: Украина
Продолжительность: 00:55:23
Перевод: не требуется

Файл
Кодек: х264
Качество: DVDRip-AVC
Видео: MPEG-4 AVC, 712х424@760х424, 25 fps, 2222 Кбит/с
Звук: AC3, 2 ch, 192 Кбит/с

x264 [info]: frame I:509 Avg QP:17.69 size: 47535
x264 [info]: frame P:26391 Avg QP:19.17 size: 20791
x264 [info]: frame B:56189 Avg QP:20.48 size: 6236
==================================================================
Общее
Уникальный идентификатор : 178540555178664034110511442898125972918 (0x8651A8FFA164F40383BDB7D84FE9E5B6)
Полное имя : D:\Ф А Й Л Ы\Форпост (2007).mkv
Формат : Matroska
Версия формата : Version 2
Размер файла : 957 Мбайт
Продолжительность : 55 м. 23 с.
Общий поток : 2416 Кбит/сек
Дата кодирования : UTC 2017-02-09 05:26:39
Программа кодирования : mkvmerge v7.8.0 ('River Man') 32bit built on Apr 3 2015 12:11:22
Библиотека кодирования : libebml v1.3.1 + libmatroska v1.4.2

Видео
Идентификатор : 1
Формат : AVC
Формат/Информация : Advanced Video Codec
Профиль формата : High@L4.1
Параметр CABAC формата : Да
Параметр ReFrames формата : 12 кадров
Идентификатор кодека : V_MPEG4/ISO/AVC
Продолжительность : 55 м. 23 с.
Битрейт : 2222 Кбит/сек
Ширина : 712 пикселей
Высота : 424 пикселя
Соотношение сторон : 16:9
Соотношение сторон в оригинале : 16:9
Режим частоты кадров : Постоянный
Частота кадров : 25,000 кадров/сек
Цветовое пространство : YUV
Субдискретизация насыщенности : 4:2:0
Битовая глубина : 8 бит
Тип развёртки : Прогрессивная
Бит/(Пиксели*Кадры) : 0.294
Размер потока : 862 Мбайт (90%)
Библиотека кодирования : x264 core 146 r2538 121396c
Настройки программы : cabac=1 / ref=12 / deblock=1:-2:-2 / analyse=0x3:0x133 / me=umh / subme=10 / psy=1 / psy_rd=1.05:0.10 / mixed_ref=1 / me_range=32 / chroma_me=1 / trellis=2 / 8x8dct=1 / cqm=0 / deadzone=21,11 / fast_pskip=0 / chroma_qp_offset=-3 / threads=3 / lookahead_threads=1 / sliced_threads=0 / nr=0 / decimate=0 / interlaced=0 / bluray_compat=0 / constrained_intra=0 / bframes=16 / b_pyramid=2 / b_adapt=2 / b_bias=0 / direct=3 / weightb=1 / open_gop=0 / weightp=2 / keyint=250 / keyint_min=25 / scenecut=40 / intra_refresh=0 / rc=2pass / mbtree=0 / bitrate=2222 / ratetol=1.0 / qcomp=0.63 / qpmin=0 / qpmax=39 / qpstep=4 / cplxblur=20.0 / qblur=0.5 / ip_ratio=1.10 / pb_ratio=1.30 / aq=1:1.00
Язык : Russian
Default : Да
Forced : Нет
Цветовой диапазон : Limited
Основные цвета : BT.601 PAL
Характеристики трансфера : BT.470 System B, BT.470 System G
Коэффициенты матрицы : BT.601

Аудио
Идентификатор : 2
Формат : AC-3
Формат/Информация : Audio Coding 3
Расширение режима : CM (complete main)
Параметр Endianness формата : Big
Идентификатор кодека : A_AC3
Продолжительность : 55 м. 23 с.
Вид битрейта : Постоянный
Битрейт : 192 Кбит/сек
Каналы : 2 канала
Расположение каналов : Front: L R
Частота : 48,0 КГц
Частота кадров : 31,250 кадров/сек (1536 spf)
Битовая глубина : 16 бит
Метод сжатия : С потерями
Размер потока : 76,1 Мбайт (8%)
Язык : Russian
Default : Да
Forced : Нет
Просьба отключить блокировщики рекламы на странице скриншотов по адресу: http://3.lostpic.net/, этим Вы поможете существованию проекта. Заранее спасибо!
КУБКИ

СТАЖ

МЕДАЛИ
Награды:57

За активную помощь проекту (3) Лучший по количеству кубков (6) За отличные раздачи и качество (19) За подробное оформление раздач (1) За отличные комментарии (5) Почётный форумчанин (1) Верный Сид (22)

Аватара пользователя
СССР
Sanechek
Заслуженный Корсар-Вип+
Раздачи группы KORSAR разрешено перезаливать спустя 7 дней после публикации и с обязательным добавлением банера
  • Торрент
Для скачивания торрента необходимо зарегистрироваться или войти на трекер.

Сообщение kwazar312 » 09 фев 2017, 12:27

Фильм этот попадается мне в первый раз,поэтому внимательно прочитал описание к фильму и поразился-неужели у нас сейчас может быть фильм на тему морального уклада.Уже телевидение приучило нас к совсем другой продукции для поднятия рейтинга.У данного фильма не будет высокого рейтинга,потому что моральные,чисто нравственные позиции и проблемы старательно выгрызаются из нашей жизни а-ля демократами.уважаемый Sanechek,огромное спасибо ВАМ за прекрасную раздачу,после просмотра которой чувствуешь себя человеком,а не быдлом,которому безразлично все...Удачи ВАМ.
КУБКИ

СТАЖ

МЕДАЛИ
Награды:131

За активную помощь проекту (13) Лучший по количеству кубков (40) За отличные раздачи и качество (3) За отличные комментарии (22) Почётный форумчанин (1) Верный Сид (46) За участие в конкурсах/играх (6)

Аватара пользователя
kwazar312
Заслуженный Корсар-Вип


Вернуться в Христианство



Uptime по данным Ping-Admin.Ru - сервиса мониторинга доступности сайтов
Рейтинг@Mail.ru