logo
Международный русскоязычный
торрент-трекер
Menu
Поделиться с друзьями: 
Голосуй за Корсар и получай 1000 дублонов каждый день
Рейтинг торрент трекеров - UpTracker.ru

Фокус-покус / Hocus Pocus (1993, Ужасы, фэнтези, комедия, семейный, UHD BDRemux 2160p)

Сообщение al1ksandr » 16 сен 2020, 10:20

Название: Фокус-покус
Оригинальное название: Hocus Pocus
Год выхода: 1993
Жанр: Ужасы, фэнтези, комедия, семейный
Режиссер: Кенни Ортега
В ролях: Бетт Мидлер, Сара Джессика Паркер, Кэти Нэджими, Омри Кац, Тора Бёрч, Винесса Шоу, Аманда Шеперд, Ларри Бэгби, Тобиаш Элинек, Стефани Фэраси, Чарльз Роккет, Даг Джонс, Керин Малчус, Шон Мюррэй, Стив Воборжил, Норберт Вайссер, Кэтлин Фримен, Д.А. Поли, Эзра Саттон, Дон Йессо, Майкл МакГрэйди, Ли Хэмилтон, Девон Ривз, Джозеф Мэлоун, Джордан Редмонд, Тейлор Стэнли, Пенни Маршалл, Гэрри Маршалл, Крис Генри Коффи

О фильме: Милый, добрый и просто очаровательный фильм для семейного просмотра, наполненный мистикой, колдовством и непередаваемой атмосферой Хэллоуина. Итак… Триста лет назад три сестры-ведьмы были сожжены за все то зло, которое принесли округе, а дом, в котором они жили, заброшен. Однако осталась легенда, что если на Хэллоуин девственница или девственник зажжет в доме ведьм черную свечу, ведьмы воскреснут и продолжат занятие колдовством. В наше время парнишка по имени Макс, желая произвести впечатление на девочку, в которую был влюблен, совершает ритуал из предания – зажигает свечу в страшном доме. И пророчество сбывается. Три ведьмочки возвращаются в наш мир и начинают варить зелье и строить планы по уничтожению всех детей в округе ради обретения вечной молодости. Впрочем, им постоянно приходится на что-то отвлекаться – то на незнакомые бытовые приборы, то на флирт с мужчинами. И так они увлекаются, что совершенно забывают о своем враге – черном коте, у которого к ведьмам свои счеты. Итак, три забавные ведьмы, говорящий черный кот, много юмора и атмосфера Хэллоуина… Добро пожаловать удивительный мир фильма!



Страна: США
Студия: Walt Disney Pictures
Продолжительность: 01:36:07
Перевод(ы):
1: Профессиональный многоголосый [Позитив Мультимедиа]
2: Профессиональный многоголосый [НТВ]
3: Профессиональный многоголосый [СТС]
4: Профессиональный двухголосый [Видеосервис]
5: Профессиональный двухголосый [Петр Гланц и Инна Королёва]
6: Авторский одноголосый [Василий Горчаков]
7: Авторский одноголосый [Вартан Дохалов]

Качество: UHD BDRemux 2160p
Видео: 3840x2160 at 23.976 fps, MPEG-H HEVC HDR Video, 77300 kbps avg
Аудио #01: 48 kHz, DTS-HD MA, 5.1, 4226 Kbps | Позитив Мультимедиа | RUS |
Аудио #02: 48 kHz, AC3, 2.0, 192 Kbps | НТВ | RUS |
Аудио #03: 48 kHz, AC3, 2.0, 192 Kbps | СТС | RUS |
Аудио #04: 48 kHz, DTS-HD MA, 5.1, 4247 Kbps | Видеосервис | RUS |
Аудио #05: 48 kHz, DTS-HD MA, 5.1, 4221 Kbps | Петр Гланц и Инна Королёва | RUS |
Аудио #06: 48 kHz, DTS-HD MA, 5.1, 4227 Kbps | Василий Горчаков | RUS |
Аудио #07: 48 kHz, AC3, 2.0, 192 Kbps | Вартан Дохалов | RUS |
Аудио #08: 48 kHz, DTS-HD MA, 5.1, 4191 Kbps | Оригинал | ENG |
Субтитры: Русские (full), английские


General
Unique ID : 85284724149162138004737293389582238848 (0x40293D8B19EFEDE69EFBE79EFF1B0480)
Complete name : D:Video111Hocus.Pocus.1993.BDREMUX.2160p.HDR.seleZen.mkv
Format : Matroska
Format version : Version 4
File size : 66.5 GiB
Duration : 1 h 36 min
Overall bit rate mode : Variable
Overall bit rate : 98.8 Mb/s
Movie name : Hocus Pocus 1993 4K UHD from селезень
Encoded date : UTC 2020-09-16 01:14:54
Writing application : mkvmerge v40.0.0 ('Old Town Road + Pony') 64-bit
Writing library : libebml v1.3.9 + libmatroska v1.5.2

Video
ID : 1
Format : HEVC
Format/Info : High Efficiency Video Coding
Format profile : Main 10@L5.1@High
HDR format : SMPTE ST 2086, HDR10 compatible
Codec ID : V_MPEGH/ISO/HEVC
Duration : 1 h 36 min
Bit rate : 77.3 Mb/s
Width : 3 840 pixels
Height : 2 160 pixels
Display aspect ratio : 16:9
Frame rate mode : Constant
Frame rate : 23.976 (24000/1001) FPS
Color space : YUV
Chroma subsampling : 4:2:0 (Type 2)
Bit depth : 10 bits
Bits/(Pixel*Frame) : 0.389
Stream size : 51.9 GiB (78%)
Language : English
Default : Yes
Forced : No
Color range : Limited
Color primaries : BT.2020
Transfer characteristics : PQ
Matrix coefficients : BT.2020 non-constant
Mastering display color pri : Display P3
Mastering display luminance : min: 0.0001 cd/m2, max: 1000 cd/m2

Audio #1
ID : 2
Format : DTS XLL
Format/Info : Digital Theater Systems
Commercial name : DTS-HD Master Audio
Codec ID : A_DTS
Duration : 1 h 36 min
Bit rate mode : Variable
Bit rate : 4 226 kb/s
Channel(s) : 6 channels
Channel layout : C L R Ls Rs LFE
Sampling rate : 48.0 kHz
Frame rate : 93.750 FPS (512 SPF)
Bit depth : 24 bits
Compression mode : Lossless
Stream size : 2.84 GiB (4%)
Title : MVO [Positive Media]
Language : Russian
Default : Yes
Forced : Yes

Audio #2
ID : 3
Format : AC-3
Format/Info : Audio Coding 3
Commercial name : Dolby Digital
Codec ID : A_AC3
Duration : 1 h 36 min
Bit rate mode : Constant
Bit rate : 192 kb/s
Channel(s) : 2 channels
Channel layout : L R
Sampling rate : 48.0 kHz
Frame rate : 31.250 FPS (1536 SPF)
Compression mode : Lossy
Stream size : 132 MiB (0%)
Title : MVO [NTV]
Language : Russian
Service kind : Complete Main
Default : No
Forced : No

Audio #3
ID : 4
Format : AC-3
Format/Info : Audio Coding 3
Commercial name : Dolby Digital
Codec ID : A_AC3
Duration : 1 h 36 min
Bit rate mode : Constant
Bit rate : 192 kb/s
Channel(s) : 2 channels
Channel layout : L R
Sampling rate : 48.0 kHz
Frame rate : 31.250 FPS (1536 SPF)
Compression mode : Lossy
Stream size : 132 MiB (0%)
Title : MVO [STS]
Language : Russian
Service kind : Complete Main
Default : No
Forced : No

Audio #4
ID : 5
Format : DTS XLL
Format/Info : Digital Theater Systems
Commercial name : DTS-HD Master Audio
Codec ID : A_DTS
Duration : 1 h 36 min
Bit rate mode : Variable
Bit rate : 4 247 kb/s
Channel(s) : 6 channels
Channel layout : C L R Ls Rs LFE
Sampling rate : 48.0 kHz
Frame rate : 93.750 FPS (512 SPF)
Bit depth : 24 bits
Compression mode : Lossless
Stream size : 2.86 GiB (4%)
Title : DVO [Videoservice]
Language : Russian
Default : No
Forced : No

Audio #5
ID : 6
Format : DTS XLL
Format/Info : Digital Theater Systems
Commercial name : DTS-HD Master Audio
Codec ID : A_DTS
Duration : 1 h 36 min
Bit rate mode : Variable
Bit rate : 4 221 kb/s
Channel(s) : 6 channels
Channel layout : C L R Ls Rs LFE
Sampling rate : 48.0 kHz
Frame rate : 93.750 FPS (512 SPF)
Bit depth : 24 bits
Compression mode : Lossless
Stream size : 2.84 GiB (4%)
Title : DVO [Peter Glantz and Inna Koroleva]
Language : Russian
Default : No
Forced : No

Audio #6
ID : 7
Format : DTS XLL
Format/Info : Digital Theater Systems
Commercial name : DTS-HD Master Audio
Codec ID : A_DTS
Duration : 1 h 36 min
Bit rate mode : Variable
Bit rate : 4 227 kb/s
Channel(s) : 6 channels
Channel layout : C L R Ls Rs LFE
Sampling rate : 48.0 kHz
Frame rate : 93.750 FPS (512 SPF)
Bit depth : 24 bits
Compression mode : Lossless
Stream size : 2.84 GiB (4%)
Title : AVO [V.Gorchakov]
Language : Russian
Default : No
Forced : No

Audio #7
ID : 8
Format : AC-3
Format/Info : Audio Coding 3
Commercial name : Dolby Digital
Codec ID : A_AC3
Duration : 1 h 36 min
Bit rate mode : Constant
Bit rate : 192 kb/s
Channel(s) : 2 channels
Channel layout : L R
Sampling rate : 48.0 kHz
Frame rate : 31.250 FPS (1536 SPF)
Compression mode : Lossy
Stream size : 132 MiB (0%)
Title : AVO [V.Dohalov]
Language : Russian
Service kind : Complete Main
Default : No
Forced : No

Audio #8
ID : 9
Format : DTS XLL
Format/Info : Digital Theater Systems
Commercial name : DTS-HD Master Audio
Codec ID : A_DTS
Duration : 1 h 36 min
Bit rate mode : Variable
Bit rate : 4 191 kb/s
Channel(s) : 6 channels
Channel layout : C L R Ls Rs LFE
Sampling rate : 48.0 kHz
Frame rate : 93.750 FPS (512 SPF)
Bit depth : 24 bits
Compression mode : Lossless
Stream size : 2.81 GiB (4%)
Title : Original
Language : English
Default : No
Forced : No

Text #1
ID : 10
Format : UTF-8
Codec ID : S_TEXT/UTF8
Codec ID/Info : UTF-8 Plain Text
Duration : 1 h 32 min
Bit rate : 83 b/s
Count of elements : 1132
Stream size : 56.9 KiB (0%)
Title : Full
Language : Russian
Default : No
Forced : No

Text #2
ID : 11
Format : UTF-8
Codec ID : S_TEXT/UTF8
Codec ID/Info : UTF-8 Plain Text
Duration : 1 h 32 min
Bit rate : 60 b/s
Count of elements : 1206
Stream size : 40.9 KiB (0%)
Title : Full
Language : English
Default : No
Forced : No

Menu
00:00:00.000 : en:Opening Titles/Life Force Spell
00:08:39.936 : en:The Legend Of Thackery Binx
00:14:00.465 : en:New Kid In Town
00:20:19.009 : en:Trick Or Treat
00:26:45.479 : en:Black Flame Candle
00:32:10.595 : en:Return Of The Sanderson Sisters
00:36:42.992 : en:Hallowed Ground
00:43:58.553 : en:Bus Ride Into Town
00:48:03.297 : en:The Master's House
00:54:17.629 : en:Town Hall Party
01:01:22.345 : en:Witch Burning
01:06:02.167 : en:Ugly Chicks Stay Up Late
01:08:21.723 : en:Opening The Book
01:14:38.849 : en:Come, Little Children
01:21:29.343 : en:Winifred's Potion
01:29:09.553 : en:The Spell Is Broken/End Credits


Релиз:
КУБКИ

СТАЖ

МЕДАЛИ
Награды:56

За активную помощь проекту VIP (4) Лучший по количеству кубков (16) За отличные раздачи и качество (13) За подробное оформление раздач (1) За отличные комментарии (15) Почётный форумчанин (3) Верный Сид (1) За участие в конкурсах/играх (2)

Аватара пользователя
СССР
al1ksandr
Главный Модератор-Корсар
  • Торрент
Для скачивания торрента необходимо зарегистрироваться или войти на трекер.

Вернуться в Фильмы 4К (UHD 4K)



Рейтинг@Mail.ru