logo
Международный русскоязычный
торрент-трекер
Menu
Поделиться с друзьями: 
Голосуй за Корсар и получи 500 дублонов
Рейтинг торрент трекеров - UpTracker.ru

Если бы я тебя любил (2010, мелодрама, DVDRip-AVC) - KORSAR

Сообщение filbi1976 » 07 фев 2018, 03:38

Если бы я тебя любил

Жанр: мелодрама
Год выпуска: 2010
Продолжительность: 01:39:23
Режиссер: Сергей Крутин
В ролях: Екатерина Гусева, Владимир Вдовиченков, Сталина Лагошняк, Инна Цымбалюк, Екатерина Кистень, Иван Марченко, Леонид Анисимов, Валерий Бассэль, Анастасия Дементьева, Сергей Деньга, Анна Дьяченко, Станислав Ковалевский, Тимофей Криницкий, Ольга Кришталь, Александра Кузнецова, Маргарита Пресич, Александр Суворов, Игорь Тильтиков, Валерий Швец, Евгений Юхновец

Описание: Живет в одном городе Таня - воспитательница детского сада, бездетная вдова, самоотверженно ухаживаюшая за страдающей от рака легких матерью мужа. И, когда свекровь умирает, Таня остаётся абсолютно одна. А ей так хочется ребёночка (пусть даже без мужа) - чтобы быть хоть кому-то нужной. Отвлекаясь от рутины, Таня ходит в местный Дворец культуры на психологические тренинги. На одном из занятий она знакомится с Павлом Нескучным - выросшим в детдоме веселым, бесшабашным, несколько хамоватым таксистом, явившимся вовсе не затем, чтобы тренировать психологию, а чтобы "разобраться" с проводящим занятия психологом, который, как кажется Павлу, "подбивает клинья" к его любимой девушке, красавице Тамаре. Психолог обещает пообщаться с Павлом после занятия, а пока настоятельно просит его встать в пару с Таней, чтобы она могла выполнить задание - поговорить с Павлом на тему "Если бы я тебя любила"...



Кодек: х264
Качество: DVDRip-AVC
Видео: MPEG-4 AVC, 720x452@768x452, 25 fps, 1440 Кбит/с
Звук: AC3, 2 ch, 224 Кбит/с



  • x264 [info]: frame I:863 Avg QP:17.70 size: 47589
  • x264 [info]: frame P:32755 Avg QP:19.22 size: 18786
  • x264 [info]: frame B:115465 Avg QP:21.52 size: 3815
  • x264 [info]: consecutive B-frames: 1.3% 2.3% 9.2% 24.6% 17.2% 41.4% 2.9% 0.5% 0.3% 0.2% 0.1%
Общее
Уникальный идентификатор : 201438028483355117984015799101750062992 (0x978B8D97ECCFEC3E99469BE82A152F90)
Полное имя : D:\Если бы я тебя любил_2010-DVDRip-AVC_KORSAR.mkv
Формат : Matroska
Версия формата : Version 2
Размер файла : 1,18 Гбайт
Продолжительность : 1 ч. 39 м.
Общий поток : 1697 Кбит/сек
Название фильма : Если бы я тебя любил_2010-DVDRip-AVC_KORSAR
Дата кодирования : UTC 2018-02-07 01:41:57
Программа кодирования : mkvmerge v5.8.0 ('No Sleep / Pillow') built on Sep 2 2012 15:37:04
Библиотека кодирования : libebml v1.2.3 + libmatroska v1.3.0

Видео
Идентификатор : 1
Формат : AVC
Формат/Информация : Advanced Video Codec
Профиль формата : High@L4.1
Параметр CABAC формата : Да
Параметр RefFrames формата : 15 кадров
Идентификатор кодека : V_MPEG4/ISO/AVC
Продолжительность : 1 ч. 39 м.
Битрейт : 1440 Кбит/сек
Ширина : 720 пикселей
Высота : 452 пикселя
Соотношение сторон : 5:3
Режим частоты кадров : Постоянный
Частота кадров : 25,000 кадров/сек
Цветовое пространство : YUV
Субдискретизация насыщенности : 4:2:0
Битовая глубина : 8 бит
Тип развёртки : Прогрессивная
Бит/(Пиксели*Кадры) : 0.177
Размер потока : 1023 Мбайт (85%)
Библиотека кодирования : x264 core 148 r2744kMod b97ae06
Настройки программы : cabac=1 / ref=15 / deblock=1:-2:1 / analyse=0x3:0x133 / me=umh / subme=10 / psy=1 / fade_compensate=0.00 / psy_rd=1.05:0.15 / mixed_ref=1 / me_range=40 / chroma_me=1 / trellis=2 / 8x8dct=1 / cqm=0 / deadzone=21,11 / fast_pskip=1 / chroma_qp_offset=-3 / threads=12 / lookahead_threads=3 / sliced_threads=0 / nr=0 / decimate=1 / interlaced=0 / bluray_compat=0 / constrained_intra=0 / bframes=10 / b_pyramid=2 / b_adapt=2 / b_bias=0 / direct=1 / weightb=1 / open_gop=0 / weightp=2 / keyint=250 / keyint_min=25 / scenecut=40 / intra_refresh=0 / rc_lookahead=40 / rc=crf / mbtree=0 / crf=17.7000 / qcomp=0.63 / qpmin=0 / qpmax=39 / qpstep=4 / vbv_maxrate=50000 / vbv_bufsize=62500 / crf_max=0.0 / nal_hrd=none / filler=0 / ip_ratio=1.40 / pb_ratio=1.30 / aq=1:1.00
Язык : English
Default : Да
Forced : Нет
Цветовой диапазон : Limited
Основные цвета : BT.601 PAL
Характеристики трансфера : BT.470 System B, BT.470 System G
Коэффициенты матрицы : BT.601

Аудио
Идентификатор : 2
Формат : AC-3
Формат/Информация : Audio Coding 3
Параметр Endianness формата : Big
Идентификатор кодека : A_AC3
Продолжительность : 1 ч. 39 м.
Вид битрейта : Постоянный
Битрейт : 224 Кбит/сек
Каналы : 2 канала
Расположение каналов : Front: L R
Частота : 48,0 КГц
Частота кадров : 31,250 кадров/сек (1536 SPF)
Битовая глубина : 16 бит
Метод сжатия : С потерями
Размер потока : 159 Мбайт (13%)
Язык : Russian
ServiceKind/String : Complete Main
Default : Да
Forced : Нет

Меню
00:00:00.000 : en:Chapter 1
00:00:26.800 : en:Chapter 2
00:16:39.280 : en:Chapter 3
00:37:53.680 : en:Chapter 4
01:01:30.160 : en:Chapter 5
01:23:07.600 : en:Chapter 6
01:38:38.320 : en:Chapter 7

Просьба отключить блокировщики рекламы на странице скриншотов по адресу: http://3.lostpic.net/, этим Вы поможете существованию проекта. Заранее спасибо!
The Show Must Go On
Посмотреть товар в профиле пользователя

Нажмите на изображение, чтобы увидеть в полный размер  
1 шт.
Нажмите на изображение, чтобы увидеть в полный размер  
1 шт.
Нажмите на изображение, чтобы увидеть в полный размер  
1 шт.
Нажмите на изображение, чтобы увидеть в полный размер  
1 шт.
Нажмите на изображение, чтобы увидеть в полный размер  
1 шт.
Нажмите на изображение, чтобы увидеть в полный размер  
1 шт.
Нажмите на изображение, чтобы увидеть в полный размер  
1 шт.
Нажмите на изображение, чтобы увидеть в полный размер  
1 шт.
Нажмите на изображение, чтобы увидеть в полный размер  
1 шт.
Нажмите на изображение, чтобы увидеть в полный размер  
1 шт.
Нажмите на изображение, чтобы увидеть в полный размер  
1 шт.
Нажмите на изображение, чтобы увидеть в полный размер  
1 шт.
Нажмите на изображение, чтобы увидеть в полный размер  
1 шт.
Нажмите на изображение, чтобы увидеть в полный размер  
1 шт.
Нажмите на изображение, чтобы увидеть в полный размер  
1 шт.
КУБКИ

СТАЖ

МЕДАЛИ
Награды:174

За активную помощь проекту (5) Лучший по количеству кубков (1) За отличные раздачи и качество (114) За подробное оформление раздач (4) За отличные комментарии (8) Почётный форумчанин (3) Верный Сид (35) За участие в конкурсах/играх (2) 3 место в конкурсах/играх (1)

Аватара пользователя
Тортуга
filbi1976
Администратор-Корсар
Раздачи группы KORSAR доступны тем кто раздал не менее 15 гиг, а перезаливать разрешено только спустя 14 дней после публикации и с обязательным добавлением банера!!!
  • Торрент
Для скачивания торрента необходимо зарегистрироваться или войти на трекер.

Сообщение Sultan-33 » 07 фев 2018, 05:47

Сергей! Это один из моих любимых фильмов :senks2:
Бесконечная тебе благодарность ! :-drinks:
Когда я первый раз увидел этот фильм,то...просто был поражён,как честно играют Гусева и Вдовиченков, словно самих себя изображают на экране.
После "Бригады"...этот фильм просто откровение.
Всем приятного просмотра!
КУБКИ

СТАЖ

МЕДАЛИ
Награды:12

За отличные комментарии (12)

Аватара пользователя
Sultan-33
Опытный Корсар

Сообщение verybigpapa » 07 фев 2018, 06:41

Уважаемый filbi1976, большое спасибо. :hi: :respect:
Улыбайтесь, господа! Улыбайтесь!
КУБКИ

СТАЖ

МЕДАЛИ
Награды:69

Пожизненный VIP+ (1) За активную помощь проекту (27) Лучший по количеству кубков (9) За отличные раздачи и качество (1) За отличные комментарии (12) Почётный форумчанин (1) Верный Сид (18)

Аватара пользователя
СССР
verybigpapa
Заслуженный Корсар-VIP+

Сообщение filbi1976 » 10 фев 2018, 01:58

Всем пожалуйста! :hi:
The Show Must Go On
Посмотреть товар в профиле пользователя

Нажмите на изображение, чтобы увидеть в полный размер  
1 шт.
Нажмите на изображение, чтобы увидеть в полный размер  
1 шт.
Нажмите на изображение, чтобы увидеть в полный размер  
1 шт.
Нажмите на изображение, чтобы увидеть в полный размер  
1 шт.
Нажмите на изображение, чтобы увидеть в полный размер  
1 шт.
Нажмите на изображение, чтобы увидеть в полный размер  
1 шт.
Нажмите на изображение, чтобы увидеть в полный размер  
1 шт.
Нажмите на изображение, чтобы увидеть в полный размер  
1 шт.
Нажмите на изображение, чтобы увидеть в полный размер  
1 шт.
Нажмите на изображение, чтобы увидеть в полный размер  
1 шт.
Нажмите на изображение, чтобы увидеть в полный размер  
1 шт.
Нажмите на изображение, чтобы увидеть в полный размер  
1 шт.
Нажмите на изображение, чтобы увидеть в полный размер  
1 шт.
Нажмите на изображение, чтобы увидеть в полный размер  
1 шт.
Нажмите на изображение, чтобы увидеть в полный размер  
1 шт.
КУБКИ

СТАЖ

МЕДАЛИ
Награды:174

За активную помощь проекту (5) Лучший по количеству кубков (1) За отличные раздачи и качество (114) За подробное оформление раздач (4) За отличные комментарии (8) Почётный форумчанин (3) Верный Сид (35) За участие в конкурсах/играх (2) 3 место в конкурсах/играх (1)

Аватара пользователя
Тортуга
filbi1976
Администратор-Корсар

Сообщение Gogen » 09 янв 2019, 23:12

Проьба присоединиться к раздаче!
КУБКИ

СТАЖ

МЕДАЛИ
Награды:67

Лучший по количеству кубков (14) За отличные раздачи и качество (36) За подробное оформление раздач (2) За отличные комментарии (7) Почётный форумчанин (2) Верный Сид (2)

Аватара пользователя
Russia
Gogen
Заслуженный Релизёр-Корсар

Сообщение kwazar312 » 09 янв 2019, 23:37

фильм на раздаче,скачивайте,пожалуйста.Удачи.
КУБКИ

СТАЖ

МЕДАЛИ
Награды:148

Пожизненный VIP+ (3) За активную помощь проекту (14) Лучший по количеству кубков (46) За отличные раздачи и качество (3) За отличные комментарии (26) Почётный форумчанин (1) Верный Сид (49) За участие в конкурсах/играх (6)

Аватара пользователя
kwazar312
Заслуженный Корсар-VIP+


Вернуться в Наше современное кино



Рейтинг@Mail.ru