logo
Международный русскоязычный
торрент-трекер
Menu

Doublon
Поделиться с друзьями: 
Голосуй за Корсар и получи 150 дублонов
Рейтинг торрент трекеров - UpTracker.ru

Эпидемия / Outbreak (1995, триллер, драма, фантастика, боевик, BDRip 720p)

Сообщение kisa1980 » 16 май 2018, 19:13

Название: Эпидемия
Оригинальное название: Outbreak
Год выхода: 1995
Жанр: Триллер, драма, фантастика, боевик
Страна: США
Студия: Punch Productions Inc., Warner Bros. Pictures
Продолжительность: 02:08:15
Перевод: Дублированный, авторский одноголосый
Режиссер: Вольфганг Петерсен
В ролях: Дастин Хоффман, Рене Руссо, Морган Фриман, Кевин Спейси, Кьюба Гудинг мл., Дональд Сазерленд, Патрик Демпси, Закес Мокае, Малик Боуэнс, Сьюзэн Ли Хоффман

О фильме: Из Африки в Америку с зараженной обезьянкой попадает смертельный вирус. Специалисты-эпидемиологи из НИИ инфекционных заболеваний армии США, в числе которых полковник Сэм Дэниелс, срочно вылетают в эпицентр заражения. Двое из высших военных руководителей — начальники Сэма — скрывают от него, что им известен этот вирус, который они выводили несколько лет. И, более того, даже разработали сыворотку, способную обезвредить вирус. Для предотвращения страшной эпидемии нужна сыворотка, которую можно получить лишь из крови первоначального носителя — той самой обезьянки. Дело осложняется тем, что место ее нахождения неизвестно, а счет идет на часы.



Качество: BDRip 720p
Видео: 1280x720 at 23.976 fps, x264@L4.1, ~5451 kbps avg
Аудио 1: Russian: 48 kHz, AC3, 3/2 (L,C,R,l,r) + LFE ch, ~384 kbps avg |Дубляж, Варус Видео|
Аудио 2: Russian: 48 kHz, AC3, 3/2 (L,C,R,l,r) + LFE ch, ~384 kbps avg |Дубляж, Мост Видео|
Аудио 3: Russian: 48 kHz, AC3, 3/2 (L,C,R,l,r) + LFE ch, ~448 kbps avg |Авторский, С. Визгунов|
Аудио 4: Russian: 48 kHz, AC3, 3/2 (L,C,R,l,r) + LFE ch, ~448 kbps avg |Авторский, А. Гаврилов|
Аудио 5: Russian: 48 kHz, AC3, 2/0 (L,R) ch, ~192 kbps avg |Авторский, А. Кашкин|
Аудио 6: English: 48 kHz, AC3, 3/2 (L,C,R,l,r) + LFE ch, ~640 kbps avg |Оригинал|
Субтитры: Russian, English

***Сохранены оригинальные главы как на Blu-ray.
***Релиз - msltel.


Общее
Уникальный идентификатор : 242048570888074973716451946761355243627 (0xB618DBEBCFBECC72AD69553E73C7B06B)
Полное имя : Эпидемия.1995.BDRip.720p by msltel.mkv
Формат : Matroska
Версия формата : Version 4 / Version 2
Размер файла : 7,26 Гбайт
Продолжительность : 2 ч. 8 м.
Общий поток : 8108 Кбит/сек
Название фильма : Rip by msltel
Дата кодирования : UTC 2017-03-23 02:27:43
Программа кодирования : mkvmerge v8.2.0 ('World of Adventure') 64bit
Библиотека кодирования : libebml v1.3.1 + libmatroska v1.4.2

Видео
Идентификатор : 1
Формат : AVC
Формат/Информация : Advanced Video Codec
Профиль формата : High@L4.1
Параметр CABAC формата : Да
Параметр ReFrames формата : 9 кадров
Идентификатор кодека : V_MPEG4/ISO/AVC
Продолжительность : 2 ч. 8 м.
Битрейт : 5451 Кбит/сек
Ширина : 1280 пикселей
Высота : 720 пикселей
Соотношение сторон : 16:9
Режим частоты кадров : Постоянный
Частота кадров : 23,976 кадра/сек
Цветовое пространство : YUV
Субдискретизация насыщенности : 4:2:0
Битовая глубина : 8 бит
Тип развёртки : Прогрессивная
Бит/(Пиксели*Кадры) : 0.247
Размер потока : 4,88 Гбайт (67%)
Библиотека кодирования : x264 core 146 r2538 121396c
Настройки программы : cabac=1 / ref=9 / deblock=1:-3:-2 / analyse=0x3:0x113 / me=umh / subme=11 / psy=1 / psy_rd=1.00:0.15 / mixed_ref=1 / me_range=32 / chroma_me=1 / trellis=2 / 8x8dct=1 / cqm=0 / deadzone=21,11 / fast_pskip=0 / chroma_qp_offset=-3 / threads=6 / lookahead_threads=1 / sliced_threads=0 / nr=0 / decimate=1 / interlaced=0 / bluray_compat=0 / constrained_intra=0 / bframes=7 / b_pyramid=2 / b_adapt=2 / b_bias=0 / direct=1 / weightb=1 / open_gop=0 / weightp=2 / keyint=230 / keyint_min=23 / scenecut=40 / intra_refresh=0 / rc_lookahead=40 / rc=crf / mbtree=0 / crf=18.4 / qcomp=0.60 / qpmin=0 / qpmax=69 / qpstep=4 / vbv_maxrate=62500 / vbv_bufsize=78125 / crf_max=0.0 / nal_hrd=none / filler=0 / ip_ratio=1.40 / pb_ratio=1.30 / aq=1:1.00
Язык : English
Default : Да
Forced : Нет

Аудио #1
Идентификатор : 2
Формат : AC-3
Формат/Информация : Audio Coding 3
Расширение режима : CM (complete main)
Параметр Endianness формата : Big
Идентификатор кодека : A_AC3
Продолжительность : 2 ч. 8 м.
Вид битрейта : Постоянный
Битрейт : 384 Кбит/сек
Каналы : 6 каналов
Расположение каналов : Front: L C R, Side: L R, LFE
Частота : 48,0 КГц
Битовая глубина : 16 бит
Метод сжатия : С потерями
Размер потока : 352 Мбайт (5%)
Заголовок : DUB (Варус видео)
Язык : Russian
Default : Да
Forced : Нет

Аудио #2
Идентификатор : 3
Формат : AC-3
Формат/Информация : Audio Coding 3
Расширение режима : CM (complete main)
Параметр Endianness формата : Big
Идентификатор кодека : A_AC3
Продолжительность : 2 ч. 8 м.
Вид битрейта : Постоянный
Битрейт : 384 Кбит/сек
Каналы : 6 каналов
Расположение каналов : Front: L C R, Side: L R, LFE
Частота : 48,0 КГц
Битовая глубина : 16 бит
Метод сжатия : С потерями
Размер потока : 352 Мбайт (5%)
Заголовок : DUB (Мост видео)
Язык : Russian
Default : Нет
Forced : Нет

Аудио #3
Идентификатор : 4
Формат : AC-3
Формат/Информация : Audio Coding 3
Расширение режима : CM (complete main)
Параметр Endianness формата : Big
Идентификатор кодека : A_AC3
Продолжительность : 2 ч. 8 м.
Вид битрейта : Постоянный
Битрейт : 448 Кбит/сек
Каналы : 6 каналов
Расположение каналов : Front: L C R, Side: L R, LFE
Частота : 48,0 КГц
Битовая глубина : 16 бит
Метод сжатия : С потерями
Размер потока : 411 Мбайт (6%)
Заголовок : AVO (Сергей Визгунов)
Язык : Russian
Default : Нет
Forced : Нет

Аудио #4
Идентификатор : 5
Формат : AC-3
Формат/Информация : Audio Coding 3
Расширение режима : CM (complete main)
Параметр Endianness формата : Big
Идентификатор кодека : A_AC3
Продолжительность : 2 ч. 8 м.
Вид битрейта : Постоянный
Битрейт : 448 Кбит/сек
Каналы : 6 каналов
Расположение каналов : Front: L C R, Side: L R, LFE
Частота : 48,0 КГц
Битовая глубина : 16 бит
Метод сжатия : С потерями
Размер потока : 411 Мбайт (6%)
Заголовок : AVO (Андрей Гаврилов)
Язык : Russian
Default : Нет
Forced : Нет

Аудио #5
Идентификатор : 6
Формат : AC-3
Формат/Информация : Audio Coding 3
Расширение режима : CM (complete main)
Параметр Endianness формата : Big
Идентификатор кодека : A_AC3
Продолжительность : 2 ч. 8 м.
Вид битрейта : Постоянный
Битрейт : 192 Кбит/сек
Каналы : 2 канала
Расположение каналов : Front: L R
Частота : 48,0 КГц
Битовая глубина : 16 бит
Метод сжатия : С потерями
Размер потока : 176 Мбайт (2%)
Заголовок : AVO (Александр Кашкин)
Язык : Russian
Default : Нет
Forced : Нет

Аудио #6
Идентификатор : 7
Формат : AC-3
Формат/Информация : Audio Coding 3
Расширение режима : CM (complete main)
Параметр Endianness формата : Big
Идентификатор кодека : A_AC3
Продолжительность : 2 ч. 8 м.
Вид битрейта : Постоянный
Битрейт : 640 Кбит/сек
Каналы : 6 каналов
Расположение каналов : Front: L C R, Side: L R, LFE
Частота : 48,0 КГц
Битовая глубина : 16 бит
Метод сжатия : С потерями
Размер потока : 587 Мбайт (8%)
Заголовок : original
Язык : English
Default : Нет
Forced : Нет

Текст #1
Идентификатор : 8
Формат : UTF-8
Идентификатор кодека : S_TEXT/UTF8
Идентификатор кодека/Информация : UTF-8 Plain Text
Заголовок : русские
Язык : Russian
Default : Нет
Forced : Нет

Текст #2
Идентификатор : 9
Формат : UTF-8
Идентификатор кодека : S_TEXT/UTF8
Идентификатор кодека/Информация : UTF-8 Plain Text
Заголовок : английские
Язык : English
Default : Нет
Forced : Нет

Меню
00:00:00.000 : :Chapter 01
00:03:55.652 : :Chapter 02
00:07:05.883 : :Chapter 03
00:10:18.159 : :Chapter 04
00:13:16.504 : :Chapter 05
00:17:54.114 : :Chapter 06
00:20:33.440 : :Chapter 07
00:23:08.470 : :Chapter 08
00:27:46.915 : :Chapter 09
00:30:26.950 : :Chapter 10
00:34:40.495 : :Chapter 11
00:37:46.597 : :Chapter 12
00:41:08.257 : :Chapter 13
00:43:51.920 : :Chapter 14
00:47:23.465 : :Chapter 15
00:49:34.930 : :Chapter 16
00:51:39.429 : :Chapter 17
00:54:11.498 : :Chapter 18
00:56:16.706 : :Chapter 19
00:59:16.094 : :Chapter 20
01:03:23.007 : :Chapter 21
01:07:30.921 : :Chapter 22
01:08:42.827 : :Chapter 23
01:10:52.289 : :Chapter 24
01:13:43.544 : :Chapter 25
01:15:36.448 : :Chapter 26
01:18:21.822 : :Chapter 27
01:22:13.428 : :Chapter 28
01:26:22.135 : :Chapter 29
01:29:15.933 : :Chapter 30
01:32:30.628 : :Chapter 31
01:33:41.032 : :Chapter 32
01:36:43.380 : :Chapter 33
01:38:43.876 : :Chapter 34
01:39:41.517 : :Chapter 35
01:41:27.664 : :Chapter 36
01:44:10.577 : :Chapter 37
01:45:41.126 : :Chapter 38
01:48:34.257 : :Chapter 39
01:51:15.293 : :Chapter 40
01:56:05.041 : :Chapter 41
01:58:07.330 : :Chapter 42
01:59:07.014 : :Chapter 43
02:00:54.622 : :Chapter 44
02:02:22.084 : :Chapter 45
02:08:12.267 : :Chapter 46
Аватара пользователя
kisa1980
Помощник Администратора-Корсар
 
 

Награды: 38
За помощь проекту (5) Лучший по количеству кубков (3) За отличные раздачи и качество (12) За подробное оформление раздач (4) За отличные комментарии (4) Почётный форумчанин (2) Верный Сид (4) За участие в конкурсах (2)
  • Торрент
Для скачивания торрента необходимо зарегистрироваться или войти на трекер.

Вернуться в Зарубежное кино (1991-2000 / HD Video)



Uptime по данным Ping-Admin.Ru - сервиса мониторинга доступности сайтов
Рейтинг@Mail.ru