logo
Международный русскоязычный
торрент-трекер
Menu
Doublon
Поделиться с друзьями: 
Голосуй за Корсар и получи 500 дублонов
Рейтинг торрент трекеров - UpTracker.ru

Элис, милая Элис / Alice, Sweet Alice (1976, Ужасы, детектив, триллер, BDRip 720р) - KORSAR

Сообщение GoldDust » 03 ноя 2019, 21:17

Название: Элис, милая Элис
Оригинальное название: Communion (Holy Terror, Alice Sweet Alice)
Год выпуска: 1976
Жанр: ужасы, триллер, детектив
Режиссёр: Альфред Соул
В ролях: Линда Миллер, Милдред Клинтон, Пола Э. Шеппард, Нилс МакМастер, Джейн Лоури, Рудольф Уиллрич, Майкл Хардстарк, Альфонсо ДеНобл, Гари Аллен, Брук Шилдс

О фильме: 1961 год. В католической общине города Патерсон, штат Нью-Джерси, живет молодая разведённая женщина Кэтрин Спейджес с двумя детьми — 12-летней Элис и 9-летней Карен. Карен готовится получить первое причастие. Симпатичный священник дарит ей старинное распятие, которое досталось ему от матери. Элис с обидой и завистью смотрит на счастливую младшую сестру, и, чтобы поквитаться, жестоко подшучивает над ней.



Страна: США
Студия: Harristown Funding
Продолжительность: 01:47:07
Перевод: Профессиональный (многоголосый закадровый) Петербург 5 канал
Субтитры: Английские
Навигация по главам: Есть


Качество: BDRip 720p
Видео: MPEG-4 AVC, 12600 Кбит/сек, 1278x692, 23.976 кадра/сек
Аудио #1: AC3, 2 ch, 192 Кбит/сек | Русский, профессиональный (многоголосый закадровый) Петербург 5 канал
Аудио #2: AC3, 1 ch, 224 Кбит/сек | Английский, оригинал
Аудио #3: AC3, 2 ch, 320 Кбит/сек | Английский, Commentary with co-Writer/Director Alfred Sole, Editor Edward Salier and Special Makeup Effects Assistant Bill Lustig
Аудио #4: AC3, 2 ch, 320 Кбит/сек | Английский, Commentary with Film Historian Richard Harland Smith

x264 [info]: frame I:995 Avg QP:18.25 size:159394
x264 [info]: frame P:25651 Avg QP:19.37 size:107551
x264 [info]: frame B:127458 Avg QP:21.34 size: 56205
x264 [info]: consecutive B-frames: 1.0% 1.0% 2.4% 8.2% 11.5% 37.4% 11.9% 4.8% 6.4% 7.3% 3.1% 1.2% 1.5% 1.4% 0.4% 0.3% 0.1%
==========================================================================================
General
Unique ID : 77841723236556267024763749414897952888 (0x3A8FC5441A05DC66878CE4BF0AA7A878)
Format : Matroska
Format version : Version 4
File size : 10.2 GiB
Duration : 1 h 47 min
Overall bit rate : 13.7 Mb/s
Movie name : Communion AKA Holy Terror AKA Alice Sweet Alice [1976]
Encoded date : UTC 2019-10-18 07:48:52
Writing application : mkvmerge v25.0.0 ('Prog Noir') 64-bit
Writing library : libebml v1.3.6 + libmatroska v1.4.9

Video
ID : 1
Format : AVC
Format/Info : Advanced Video Codec
Format profile : High@L4.1
Format settings : CABAC / 9 Ref Frames
Format settings, CABAC : Yes
Format settings, Reference frames : 9 frames
Codec ID : V_MPEG4/ISO/AVC
Duration : 1 h 47 min
Bit rate : 12.6 Mb/s
Width : 1 278 pixels
Height : 692 pixels
Display aspect ratio : 1.85:1
Frame rate mode : Constant
Frame rate : 23.976 (24000/1001) FPS
Color space : YUV
Chroma subsampling : 4:2:0
Bit depth : 8 bits
Scan type : Progressive
Bits/(Pixel*Frame) : 0.595
Stream size : 9.44 GiB (92%)
Title : Alice.Sweet.Alice.1976.BDRip.720p.x264-MM
Writing library : x264 core 152 r2851kMod ba24899
Encoding settings : cabac=1 / ref=9 / deblock=1:-3:-2 / analyse=0x3:0x113 / me=umh / subme=11 / psy=1 / fade_compensate=0.00 / psy_rd=1.05:0.00 / mixed_ref=1 / me_range=48 / chroma_me=1 / trellis=2 / 8x8dct=1 / cqm=0 / deadzone=21,11 / fast_pskip=0 / chroma_qp_offset=-2 / threads=12 / lookahead_threads=3 / sliced_threads=0 / nr=0 / decimate=0 / interlaced=0 / bluray_compat=0 / constrained_intra=0 / bframes=16 / b_pyramid=2 / b_adapt=2 / b_bias=0 / direct=3 / weightb=1 / open_gop=0 / weightp=2 / keyint=240 / keyint_min=23 / scenecut=40 / intra_refresh=0 / rc_lookahead=40 / rc=2pass / mbtree=0 / bitrate=12614 / ratetol=1.0 / qcomp=0.60 / qpmin=0 / qpmax=35 / qpstep=4 / cplxblur=20.0 / qblur=0.5 / vbv_maxrate=50000 / vbv_bufsize=62500 / nal_hrd=none / filler=0 / ip_ratio=1.40 / pb_ratio=1.30 / aq=2:0.90
Language : English
Default : Yes
Forced : No
Color range : Limited
Color primaries : BT.709
Transfer characteristics : BT.709
Matrix coefficients : BT.709

Audio #1
ID : 2
Format : AC-3
Format/Info : Audio Coding 3
Commercial name : Dolby Digital
Codec ID : A_AC3
Duration : 1 h 47 min
Bit rate mode : Constant
Bit rate : 192 kb/s
Channel(s) : 2 channels
Channel layout : L R
Sampling rate : 48.0 kHz
Frame rate : 31.250 FPS (1536 SPF)
Bit depth : 16 bits
Compression mode : Lossy
Stream size : 147 MiB (1%)
Title : MVO Петербург 5 канал
Language : Russian
Service kind : Complete Main
Default : Yes
Forced : No

Audio #2
ID : 3
Format : AC-3
Format/Info : Audio Coding 3
Commercial name : Dolby Digital
Codec ID : A_AC3
Duration : 1 h 47 min
Bit rate mode : Constant
Bit rate : 224 kb/s
Channel(s) : 1 channel
Channel layout : C
Sampling rate : 48.0 kHz
Frame rate : 31.250 FPS (1536 SPF)
Bit depth : 16 bits
Compression mode : Lossy
Stream size : 172 MiB (2%)
Title : Original
Language : English
Service kind : Complete Main
Default : No
Forced : No

Audio #3
ID : 4
Format : AC-3
Format/Info : Audio Coding 3
Commercial name : Dolby Digital
Codec ID : A_AC3
Duration : 1 h 47 min
Bit rate mode : Constant
Bit rate : 320 kb/s
Channel(s) : 2 channels
Channel layout : L R
Sampling rate : 48.0 kHz
Frame rate : 31.250 FPS (1536 SPF)
Bit depth : 16 bits
Compression mode : Lossy
Stream size : 245 MiB (2%)
Title : Commentary with co-Writer/Director Alfred Sole, Editor Edward Salier and Special Makeup Effects Assistant Bill Lustig
Language : English
Service kind : Complete Main
Default : No
Forced : No

Audio #4
ID : 5
Format : AC-3
Format/Info : Audio Coding 3
Commercial name : Dolby Digital
Codec ID : A_AC3
Duration : 1 h 47 min
Bit rate mode : Constant
Bit rate : 320 kb/s
Channel(s) : 2 channels
Channel layout : L R
Sampling rate : 48.0 kHz
Frame rate : 31.250 FPS (1536 SPF)
Bit depth : 16 bits
Compression mode : Lossy
Stream size : 245 MiB (2%)
Title : Commentary with Film Historian Richard Harland Smith
Language : English
Service kind : Complete Main
Default : No
Forced : No

Text
ID : 6
Format : UTF-8
Codec ID : S_TEXT/UTF8
Codec ID/Info : UTF-8 Plain Text
Duration : 1 h 44 min
Bit rate : 51 b/s
Count of elements : 1167
Stream size : 39.5 KiB (0%)
Title : SDH
Language : English
Default : No
Forced : No

Menu
00:00:00.000 : en:Chapter 01
00:08:27.257 : en:Chapter 02
00:17:40.601 : en:Chapter 03
00:27:51.420 : en:Chapter 04
00:36:04.704 : en:Chapter 05
00:42:24.208 : en:Chapter 06
00:53:36.338 : en:Chapter 07
01:02:04.346 : en:Chapter 08
01:10:46.826 : en:Chapter 09
01:20:21.734 : en:Chapter 10
01:28:22.672 : en:Chapter 11
01:38:13.596 : en:Chapter 12




Релиз:

Рип с Communion 1976 Theatrical 1080p USA Blu-ray AVC DTS-HD MA 1.0 || Remastered || Arrow
Рип, синхронизация звука и сборка - GoldDust




- Брук Шилдс сыграла в этом фильме свою первую роль. До этого она появлялась лишь в эпизодах телесериалов.
- Пауле Шеппард, игравшую 12-летнюю Элис, на момент съёмок было 19 лет.
- В одной из сцен, когда отец Том стоит под дождём и смотрит, как миссис Тредони проверяет почтовый ящик, на заднем плане можно заметить афишу хичкоковского фильма «Психо» (1960).
- Отец Том управляет машиной Ford Fairlane 1957-го года.
- По странному стечению обстоятельств Линда Миллер получила травму как раз в тот момент, когда снимали сцену в госпитале. В нём же она проходила лечение, из-за чего съёмки пришлось прервать на месяц.
- Создатели фильма были очень ограничены в средствах и на многом пришлось экономить. Часть реквизита пришлось изготавливать или доставать самим. Так, в процессе съёмок был задействован всего один «складывающийся» нож, специально сконструированный соседом Альфреда Соула, инженером по профессии.
- Альфонсо ДеНобл, сыгравший толстяка-владельца дома, в то время не был профессиональным актером. Он работал вышибалой в баре, прежде чем Альфред Соул уговорил его сыграть в фильме. До своей смерти в 1978 году, ДеНобл сыграл в двух других низкобюджетных фильмах ужасов.
- Использование желтых плащей было вдохновлено фильмом Don't Look Now 1973 года.
- Фильм выходил трижды под разными названиями (Communion — 1976; Alice, Sweet Alice — 1978; Holy Terror — 1981).
- События фильма происходят в начале 1960-х годов. В одной из сцен, на стене висит фото президента Джона Ф. Кеннеди, а в кабинете детектива висит календарь за 1961 год.
- Фотоаппарат, на который тетя Энни снимала Анжелу - это Kodak Starmite, выпускавшийся в 60е годы.
Просьба отключить блокировщики рекламы на странице скриншотов по адресу: http://3.lostpic.net/, этим Вы поможете существованию проекта. Заранее спасибо!

There's no easy way out.
КУБКИ

СТАЖ

МЕДАЛИ
Награды:17

За активную помощь проекту (1) За отличные раздачи и качество (8) Почётный форумчанин (2) Верный Сид (4)

Аватара пользователя
Canada
GoldDust
Опытный Модератор-Корсар
Раздачи группы KORSAR перезаливать запрещено, кроме групп партнёров и самой группы, но спустя 14 дней после публикации и с обязательным добавлением банера
  • Торрент
Для скачивания торрента необходимо зарегистрироваться или войти на трекер.

Сообщение kwazar312 » 03 ноя 2019, 22:03

Тяжёлый фильм для просмотра... и со всеми этими переодеваниями -- масками -- жёлтыми плащами всё же переборщили.
Да и мотивация поступков героев тоже не всегда понятна: например, зачем старушке так уж понадобилось убивать Тома (а скажем, не мать девочки, от которой исходила большая опасность, т.к. она женщина и явная конкурентка), тем более в то время, когда девочка находилась взаперти на обследовании (и была вне всяких подозрений). Можно, конечно, говорить о невменяемости и неспособности себя контролировать, но у меня сложилось иное мнение.
Ясно одно: Элис станет достойной последовательницей старушки...
Нужно добавить, что юная актриса со своей ролью справилась замечательно, т.к. вызвать такую антипатию и ощущение исходящей от неё жестокости с первых кадров далеко не каждой удастся.

Уважаемый GoldDust,спасибо за раздачу фильма.Очень тяжелый ужас,но смотреть хочется.
:hi: :-dance2: :good: :ura:
КУБКИ

СТАЖ

МЕДАЛИ
Награды:133

За активную помощь проекту (13) Лучший по количеству кубков (40) За отличные раздачи и качество (3) За отличные комментарии (22) Почётный форумчанин (4) Верный Сид (45) За участие в конкурсах/играх (6)

Аватара пользователя
kwazar312
Заслуженный Корсар-Вип

Сообщение filbi1976 » 03 ноя 2019, 23:48

Сергей, спасибоооо! :-drinks: :10 balov:
Посмотреть товар в профиле пользователя

Нажмите на изображение, чтобы увидеть в полный размер  
1 шт.
Нажмите на изображение, чтобы увидеть в полный размер  
1 шт.
Нажмите на изображение, чтобы увидеть в полный размер  
1 шт.
Нажмите на изображение, чтобы увидеть в полный размер  
1 шт.
Нажмите на изображение, чтобы увидеть в полный размер  
1 шт.
Нажмите на изображение, чтобы увидеть в полный размер  
1 шт.
Нажмите на изображение, чтобы увидеть в полный размер  
1 шт.
Нажмите на изображение, чтобы увидеть в полный размер  
1 шт.
Нажмите на изображение, чтобы увидеть в полный размер  
1 шт.
Нажмите на изображение, чтобы увидеть в полный размер  
1 шт.
Нажмите на изображение, чтобы увидеть в полный размер  
1 шт.
Нажмите на изображение, чтобы увидеть в полный размер  
1 шт.
Нажмите на изображение, чтобы увидеть в полный размер  
1 шт.
Нажмите на изображение, чтобы увидеть в полный размер  
1 шт.
Нажмите на изображение, чтобы увидеть в полный размер  
1 шт.
КУБКИ

СТАЖ

МЕДАЛИ
Награды:133

За активную помощь проекту (4) За отличные раздачи и качество (82) За подробное оформление раздач (1) За отличные комментарии (6) Почётный форумчанин (7) Верный Сид (30) За участие в конкурсах/играх (1)

Аватара пользователя
Тортуга
filbi1976
Администратор-Корсар


Вернуться в Классика зарубежного кино (фильмы до 1980 года / HD Video)



Uptime по данным Ping-Admin.Ru - сервиса мониторинга доступности сайтов
Рейтинг@Mail.ru