logo
Международный русскоязычный
торрент-трекер
Menu
Doublon
Поделиться с друзьями: 
Голосуй за Корсар и получи 400 дублонов
Рейтинг торрент трекеров - UpTracker.ru

Дзифт / Zift (2008, фильм-нуар, драма, криминал, BDRemux 1080p)

Сообщение Teufel » 11 янв 2019, 10:50

Название: Дзифт
Оригинальное название: Zift
Год выхода: 2008
Жанр: Фильм-нуар, драма, криминал
Режиссер: Явор Гырдев / Javor Gardev
В ролях: Захари Бахаров, Таня Илиева, Владимир Пенев, Димо Алексиев, Цветан Алексиев, Антони Агиров, Гергана Арнаудова, Благовест Благоев, Цветан Дмитров, Сава Драгунчев

О фильме: Действие происходит в одну ночь, когда главный герой по кличке Мотылек выпущен из тюрьмы на поруки. Он отсидел пятнадцать лет по ложному обвинению в убийстве в 1944 году, а, выйдя, очутился в новом мире - тоталитарной Болгарии 60-х. Он кое-что ищет и пойдет на все, чтобы найти это кое-что...



Страна: Болгария
Продолжительность: 01:34:40
Перевод: Профессиональный двухголосый

Качество: BDRemux 1080p
Формат: MKV
Видео: MPEG-4 AVC, 24998 kbps, 1080p, 23,976 fps, 1920x1080, 16:9, High Profile 4.1,
Аудио 1: Dolby Digital Audio Russian 2.0 / 48 kHz / 192 kbps | R5
Аудио 2: Dolby Digital Audio Russian 5.1 / 48 kHz / 448 kbps | DVO
Аудио 3: DTS-HD High-Res Audio Bulgarian 5.1 / 48 kHz / 2046 kbps / 24-bit (DTS Core: 5.1 / 48 kHz / 1509 kbps / 24-bit)
Субтитры: Русские (2 вида), английские

General
Unique ID : 185502639553127185276822693024587698572 (0x8B8E82428A4F3EBCA01759F6922DD18C)
Complete name : G:\Zift.2008.1080p.Bluray.FRE.AVC.Remux.mkv
Format : Matroska
Format version : Version 2
File size : 18.3 GiB
Duration : 1h 34mn
Overall bit rate mode : Variable
Overall bit rate : 27.7 Mbps
Movie name : Zift.2008.1080p.Bluray.FRE.AVC.Remux
Encoded date : UTC 2012-05-23 09:56:07
Writing application : mkvmerge v4.9.1 ('Ich will') сборка от Jul 11 2011 23:53:15
Writing library : libebml v1.2.1 + libmatroska v1.1.1

Video
ID : 1
Format : AVC
Format/Info : Advanced Video Codec
Format profile : High@L4.1
Format settings, CABAC : Yes
Format settings, ReFrames : 3 frames
Codec ID : V_MPEG4/ISO/AVC
Duration : 1h 34mn
Bit rate mode : Variable
Bit rate : 24.4 Mbps
Maximum bit rate : 35.0 Mbps
Width : 1 920 pixels
Height : 1 080 pixels
Display aspect ratio : 16:9
Frame rate : 23.976 fps
Standard : NTSC
Color space : YUV
Chroma subsampling : 4:2:0
Bit depth : 8 bits
Scan type : Progressive
Bits/(Pixel*Frame) : 0.492
Stream size : 16.2 GiB (88%)
Default : Yes
Forced : No
Color primaries : BT.709-5, BT.1361, IEC 61966-2-4, SMPTE RP177
Transfer characteristics : BT.709-5, BT.1361
Matrix coefficients : BT.709-5, BT.1361, IEC 61966-2-4 709, SMPTE RP177

Audio #1
ID : 2
Format : AC-3
Format/Info : Audio Coding 3
Mode extension : CM (complete main)
Codec ID : A_AC3
Duration : 1h 34mn
Bit rate mode : Constant
Bit rate : 192 Kbps
Channel(s) : 2 channels
Channel positions : Front: L R
Sampling rate : 48.0 KHz
Bit depth : 16 bits
Compression mode : Lossy
Stream size : 130 MiB (1%)
Title : R5
Language : Russian
Default : Yes
Forced : No

Audio #2
ID : 3
Format : AC-3
Format/Info : Audio Coding 3
Mode extension : CM (complete main)
Codec ID : A_AC3
Duration : 1h 34mn
Bit rate mode : Constant
Bit rate : 448 Kbps
Channel(s) : 6 channels
Channel positions : Front: L C R, Side: L R, LFE
Sampling rate : 48.0 KHz
Bit depth : 16 bits
Compression mode : Lossy
Stream size : 303 MiB (2%)
Language : Russian
Default : No
Forced : No

Audio #3
ID : 4
Format : DTS
Format/Info : Digital Theater Systems
Format profile : HRA / Core
Codec ID : A_DTS
Duration : 1h 34mn
Bit rate mode : Constant
Bit rate : 2 047 Kbps / 1 510 Kbps
Channel(s) : 6 channels
Channel positions : Front: L C R, Side: L R, LFE
Sampling rate : 48.0 KHz
Bit depth : 24 bits
Compression mode : Lossy
Stream size : 1.35 GiB (7%)
Language : Bulgarian
Default : No
Forced : No

Text #1
ID : 5
Format : UTF-8
Codec ID : S_TEXT/UTF8
Codec ID/Info : UTF-8 Plain Text
Title : R5
Language : Russian
Default : No
Forced : No

Text #2
ID : 6
Format : UTF-8
Codec ID : S_TEXT/UTF8
Codec ID/Info : UTF-8 Plain Text
Title : v2
Language : Russian
Default : No
Forced : No

Text #3
ID : 7
Format : UTF-8
Codec ID : S_TEXT/UTF8
Codec ID/Info : UTF-8 Plain Text
Language : English
Default : No
Forced : No

Menu
00:00:00.000 : en:00:00:00.000
00:15:05.321 : en:00:15:05.321
00:30:38.795 : en:00:30:38.795
00:45:57.421 : en:00:45:57.421
00:59:30.776 : en:00:59:30.776
01:14:53.572 : en:01:14:53.572
КУБКИ

СТАЖ

МЕДАЛИ
Награды:10

Лучший по количеству кубков (1) За отличные раздачи и качество (3) Верный Сид (1) C наступающим Новым Годом!!! (1)

Аватара пользователя
Teufel
Опытный Релизёр-Корсар
  • Торрент
Для скачивания торрента необходимо зарегистрироваться или войти на трекер.

Сообщение kwazar312 » 11 янв 2019, 12:14

К сожалению, сейчас очень трудно найти достойное кино. Кино, которое проймёт зрителя до глубины души, а смысл, заложенный в нём, заставит многих задуматься. Кино, после просмотра которого захочется аплодировать людям, его создавшим. Подобных фильмов мало. Почему? Быть может потому что в них нет бессмысленных перестрелок, которыми насыщена большая часть современных фильмов? Или отсутствуют столь манящие современных зрителей спецэффекты? Так вот, всего этого в данном фильме нет. Но это нисколько не помешало ему возбудить во мне желание стоя аплодировать его создателям.Фильм очень тяжелый для просмотра,но заслуживает внимания самого серьезного.
Уважаемые Teufel и Korsar,большое спасибо за раздачу.
КУБКИ

СТАЖ

МЕДАЛИ
Награды:81

За помощь проекту (8) Лучший по количеству кубков (21) За отличные комментарии (16) Верный Сид (29) За участие в конкурсах/играх (6) C наступающим Новым Годом!!! (1)

Аватара пользователя
kwazar312
Заслуженный Корсар-Вип


Вернуться в Зарубежное кино (2001-2010 / HD Video)



Uptime по данным Ping-Admin.Ru - сервиса мониторинга доступности сайтов
Рейтинг@Mail.ru Голосуйте за наш сайт в каталоге Rubo.Ru