logo
Международный русскоязычный
торрент-трекер
Menu

Doublon
Поделиться с друзьями: 
Голосуй за Корсар и получи 150 дублонов
Рейтинг торрент трекеров - UpTracker.ru

Двойной обгон (1984, детектив, SATRip-AVC) - KORSAR

Сообщение mister.hats » 14 янв 2018, 09:46

Двойной обгон

Жанр: детектив
Год выпуска: 1984
Продолжительность: 01:21:45
Перевод: Не требуется
Режиссер: Александр Гордон
В ролях: Вадим Михеенко, Юрий Назаров, Борис Химичёв, Шавкат Газиев, Наталья Гущина, Александр Коршунов, Георгий Мартиросян, Станислав Михин, Николай Прокопович, Екатерина Тарковская, Витаутас Томкус, Виктор Фокин

Описание: Два матерых преступника угоняют трейлер с дорогостоящим грузом, чтобы доставить его за сотни километров воровской шайке. Но, прежде чем осуществить свой преступный замысел, им необходимо проехать не одну сотню километров, удирая от сидящих у них "на колесах" сотрудников ГАИ. И за похищенной машиной устремляется капитан ГАИ Маджиев.



Кодек: х264
Качество: SATRip-AVC
Видео: MPEG-4 AVC, 700х432@746x432, 25 fps, 2300 Кбит/с
Аудио: AC3, 2 ch, 192 Кбит/с

x264 [info]: frame I:655 Avg QP:16.19 size: 56767
x264 [info]: frame P:29561 Avg QP:18.74 size: 26322
x264 [info]: frame B:92426 Avg QP:20.51 size: 6437

Общее
Уникальный идентификатор : 192154275447532430022195239365258219745 (0x908F913ABEFD14DEB03CA1C9D3BB90E1)
Полное имя : E:\Мои рипы\Двойной обгон 1984_SATRip-AVC_KORSAR.mkv
Формат : Matroska
Версия формата : Version 2
Размер файла : 1,42 Гбайт
Продолжительность : 1 ч. 21 м.
Общий поток : 2494 Кбит/сек
Дата кодирования : UTC 2018-01-14 06:41:18
Программа кодирования : mkvmerge v5.8.0 ('No Sleep / Pillow') built on Sep 2 2012 15:37:04
Библиотека кодирования : libebml v1.2.3 + libmatroska v1.3.0

Видео
Идентификатор : 1
Формат : AVC
Формат/Информация : Advanced Video Codec
Профиль формата : High@L4.1
Настройки формата : CABAC / 15 Ref Frames
Параметр CABAC формата : Да
Параметр RefFrames формата : 15 кадров
Идентификатор кодека : V_MPEG4/ISO/AVC
Продолжительность : 1 ч. 21 м.
Битрейт : 2300 Кбит/сек
Ширина : 700 пикселей
Высота : 432 пикселя
Соотношение сторон : 1,727
Соотношение сторон в оригинале : 1,728
Режим частоты кадров : Постоянный
Частота кадров : 25,000 кадров/сек
Цветовое пространство : YUV
Субдискретизация насыщенности : 4:2:0
Битовая глубина : 8 бит
Тип развёртки : Прогрессивная
Бит/(Пиксели*Кадры) : 0.304
Размер потока : 1,29 Гбайт (90%)
Библиотека кодирования : x264 core 152 r2851kMod ba24899
Настройки программы : cabac=1 / ref=15 / deblock=1:-2:-2 / analyse=0x3:0x133 / me=umh / subme=11 / psy=1 / fade_compensate=0.00 / psy_rd=1.05:0.10 / mixed_ref=1 / me_range=48 / chroma_me=1 / trellis=2 / 8x8dct=1 / cqm=0 / deadzone=21,11 / fast_pskip=0 / chroma_qp_offset=-3 / threads=12 / lookahead_threads=2 / sliced_threads=0 / nr=0 / decimate=0 / interlaced=0 / bluray_compat=0 / constrained_intra=0 / bframes=9 / b_pyramid=2 / b_adapt=2 / b_bias=0 / direct=3 / weightb=1 / open_gop=0 / weightp=2 / keyint=250 / keyint_min=25 / scenecut=40 / intra_refresh=0 / rc_lookahead=40 / rc=2pass / mbtree=0 / bitrate=2300 / ratetol=1.0 / qcomp=0.60 / qpmin=0 / qpmax=39 / qpstep=4 / cplxblur=20.0 / qblur=0.5 / vbv_maxrate=50000 / vbv_bufsize=62500 / nal_hrd=none / filler=0 / ip_ratio=1.25 / pb_ratio=1.30 / aq=1:0.90
Язык : English
Default : Да
Forced : Нет
Цветовой диапазон : Limited
Основные цвета : BT.601 PAL
Характеристики трансфера : BT.470 System B, BT.470 System G
Коэффициенты матрицы : BT.470 System B, BT.470 System G

Аудио
Идентификатор : 2
Формат : AC-3
Формат/Информация : Audio Coding 3
Параметр Endianness формата : Big
Идентификатор кодека : A_AC3
Продолжительность : 1 ч. 21 м.
Вид битрейта : Постоянный
Битрейт : 192 Кбит/сек
Каналы : 2 канала
Расположение каналов : Front: L R
Частота : 48,0 КГц
Частота кадров : 31,250 кадров/сек (1536 SPF)
Битовая глубина : 16 бит
Метод сжатия : С потерями
Размер потока : 112 Мбайт (8%)
Default : Да
Forced : Нет

Последний раз редактировалось mister.hats 14 янв 2018, 10:09, всего редактировалось 1 раз.

Тот кто не с нами, тот против нас
Аватара пользователя
mister.hats
Заслуженный Корсар-Вип
 
 

Награды: 43
За помощь проекту (5) Лучший по количеству кубков (9) За отличные раздачи и качество (19) За подробное оформление раздач (1) За отличные комментарии (1) Верный Сид (8)
Раздачи группы KORSAR разрешено перезаливать спустя сутки после публикации
  • Торрент
Для скачивания торрента необходимо зарегистрироваться или войти на трекер.

Сообщение mister.hats » 14 янв 2018, 10:07

Плавающее наполнение кадра.
http://screenshotcomparison.com/compari ... /picture:0
Сравнение с HDTV AVC http://screenshotcomparison.com/comparison/129127

Тот кто не с нами, тот против нас
Аватара пользователя
mister.hats
Заслуженный Корсар-Вип
 
 

Награды: 43
За помощь проекту (5) Лучший по количеству кубков (9) За отличные раздачи и качество (19) За подробное оформление раздач (1) За отличные комментарии (1) Верный Сид (8)

Сообщение verybigpapa » 14 янв 2018, 10:16

Уважаемый mister.hats, большое спасибо. :hi: :respect:
Улыбайтесь, господа! Улыбайтесь!
Аватара пользователя
verybigpapa
Заслуженный Корсар-Вип
 
 

Награды: 32
За помощь проекту (12) Лучший по количеству кубков (8) За отличные комментарии (4) Верный Сид (8)

Сообщение bst78 » 14 янв 2018, 14:46

СПАСИБО :hi:
Аватара пользователя
bst78
Заслуженный Корсар-Вип
 
 

Награды: 10
За помощь проекту (7) За отличные комментарии (1) Верный Сид (2)

Сообщение Кузьмич » 14 янв 2018, 15:09

Данный фильм не смотрел ранее, поэтому смущают его рейтинги, при полном отсутствии отзывов на «КиноПоиске». Ну что же, скачаю, любопытство одолело. Спасибо за релиз. :hi:
Аватара пользователя
Кузьмич
Уважаемый Корсар
 
 

Награды: 6
За отличные комментарии (2) Верный Сид (4)

Сообщение duke1966 » 14 янв 2018, 18:20

Хороший фильм! Показывали нам его в армии, в воскресенье,как сейчас помню. Сразу увидели неточность-у инспекторов ГАИ не могло быть штатных пистолетов ТТ ! В то время МВД было уже давно перевооружено на ПМы. ТТ и револьверы Наган оставались у ВОХРовцев и инкассаторов. А в остальном-только положительные впечатления.
Аватара пользователя
duke1966
Корсар
 
 

Награды: 1
За отличные комментарии (1)

Сообщение SaluteMe » 15 янв 2018, 00:31

Спасибо, хорошее кино.
Аватара пользователя
SaluteMe
Корсар
 
 


Сообщение 53212 » 15 янв 2018, 14:32

Спасибо! :10 balov:
Аватара пользователя
53212
Корсар
 
 


Сообщение Бользен » 16 янв 2018, 08:06

На раздаче.
Аватара пользователя
Бользен
Уважаемый Корсар
 
 

Награды: 5
Лучший по количеству кубков (1) За отличные комментарии (1) Верный Сид (3)

Сообщение mister.hats » 02 фев 2018, 20:45

Всем пожалуйста. :hi:

Тот кто не с нами, тот против нас
Аватара пользователя
mister.hats
Заслуженный Корсар-Вип
 
 

Награды: 43
За помощь проекту (5) Лучший по количеству кубков (9) За отличные раздачи и качество (19) За подробное оформление раздач (1) За отличные комментарии (1) Верный Сид (8)


Вернуться в Кино времён СССР



Uptime по данным Ping-Admin.Ru - сервиса мониторинга доступности сайтов
Рейтинг@Mail.ru