logo
Международный русскоязычный
торрент-трекер
Menu
"Бунт на корабле", за скачанные торрент-файлы дублоны не снимаются. Возможность оплачена пользователем glazik9090.
Doublon
Поделиться с друзьями: 
Голосуй за Корсар и получи 500 дублонов
Рейтинг торрент трекеров - UpTracker.ru

Две королевы / Mary Queen of Scots (2018, драма, биография, история, UHD BDRemux 2160p) | iTunes

Сообщение kisa1980 » 14 мар 2019, 23:04

Название: Две королевы
Оригинальное название: Mary Queen of Scots
Год выхода: 2018
Жанр: Драма, биография, история
Режиссер: Джози Рурк
В ролях: Сирша Ронан, Марго Робби, Джек Лауден, Джо Элвин, Дэвид Теннант, Гай Пирс, Анджела Бэйн, Ричард Кэнт, Гай Риз, Том Петти

О фильме: Безжалостная Елизавета I и дерзкая Мария Стюарт соперничали в политике и любви. Как получилось, что во времена абсолютной власти мужчин, две женщины борются за престол Англии?



Страна: Великобритани
Студия: Focus Features, Perfect World Pictures, Working Title Films
Продолжительность: 02:03:54
Перевод: Дублированный | iTunes

Качество: UHD BDRemux 2160p
Видео: MPEG-H HEVC HDR Video, 3840x2160, 73300 Kbit/s, 23.976 fps
Аудио 1: 48 kHz, AC3, 5.1, 384 Kbps | iTunes | RUS |
Аудио 2: 48 kHz, TrueHD, 7.1, 3882 Kbps | Оригинал | ENG |
Аудио 3: 48 kHz, AC3, 5.1, 448 Kbps | Оригинал | ENG |
Субтитры: Русские (forced, full), английские

Релиз от:

General
Unique ID : 289962764769588147902586970451915597678 (0xDA24CC118B5D6592B4F478A0744C676E)
Complete name : D:Video111Mary.Queen.of.Scots.2018.UHD.BDREMUX.2160p.HDR.seleZen.mkv
Format : Matroska
Format version : Version 4
File size : 67.6 GiB
Duration : 2 h 3 min
Overall bit rate mode : Variable
Overall bit rate : 78.1 Mb/s
Movie name : Mary Queen of Scots (2018) 4K from селезень
Encoded date : UTC 2019-03-14 19:41:53
Writing application : mkvmerge v32.0.0 ('Astral Progressions') 64-bit
Writing library : libebml v1.3.7 + libmatroska v1.5.0

Video
ID : 1
Format : HEVC
Format/Info : High Efficiency Video Coding
Commercial name : HDR10
Format profile : Main 10@L5.1@High
Codec ID : V_MPEGH/ISO/HEVC
Duration : 2 h 3 min
Bit rate : 73.3 Mb/s
Width : 3 840 pixels
Height : 2 160 pixels
Display aspect ratio : 16:9
Frame rate mode : Constant
Frame rate : 23.976 (24000/1001) FPS
Color space : YUV
Chroma subsampling : 4:2:0 (Type 2)
Bit depth : 10 bits
Bits/(Pixel*Frame) : 0.369
Stream size : 63.4 GiB (94%)
Language : English
Default : Yes
Forced : No
Color range : Limited
Color primaries : BT.2020
Transfer characteristics : PQ
Matrix coefficients : BT.2020 non-constant
Mastering display color pri : Display P3
Mastering display luminance : min: 0.0001 cd/m2, max: 1000 cd/m2
Maximum Content Light Level : 1000 cd/m2
Maximum Frame-Average Light : 114 cd/m2

Audio #1
ID : 2
Format : AC-3
Format/Info : Audio Coding 3
Commercial name : Dolby Digital
Codec ID : A_AC3
Duration : 2 h 3 min
Bit rate mode : Constant
Bit rate : 384 kb/s
Channel(s) : 6 channels
Channel layout : L R C LFE Ls Rs
Sampling rate : 48.0 kHz
Frame rate : 31.250 FPS (1536 SPF)
Bit depth : 16 bits
Compression mode : Lossy
Stream size : 340 MiB (0%)
Title : Dub [iTunes]
Language : Russian
Service kind : Complete Main
Default : Yes
Forced : Yes

Audio #2
ID : 3
Format : MLP FBA 16-ch
Format/Info : Meridian Lossless Packing FBA with 16-channel presentation
Commercial name : Dolby TrueHD with Dolby Atmos
Codec ID : A_TRUEHD
Duration : 2 h 3 min
Bit rate mode : Variable
Bit rate : 3 882 kb/s
Maximum bit rate : 6 444 kb/s
Channel(s) : 8 channels
Channel layout : L R C LFE Ls Rs Lb Rb
Sampling rate : 48.0 kHz
Frame rate : 1 200.000 FPS (40 SPF)
Compression mode : Lossless
Stream size : 3.36 GiB (5%)
Title : Original
Language : English
Default : No
Forced : No
Number of dynamic objects : 11
Bed channel count : 1 channel
Bed channel configuration : LFE

Audio #3
ID : 4
Format : AC-3
Format/Info : Audio Coding 3
Commercial name : Dolby Digital
Codec ID : A_AC3
Duration : 2 h 3 min
Bit rate mode : Constant
Bit rate : 448 kb/s
Channel(s) : 6 channels
Channel layout : L R C LFE Ls Rs
Sampling rate : 48.0 kHz
Frame rate : 31.250 FPS (1536 SPF)
Bit depth : 16 bits
Compression mode : Lossy
Stream size : 397 MiB (1%)
Language : English
Service kind : Complete Main
Default : No
Forced : No

Text #1
ID : 5
Format : UTF-8
Codec ID : S_TEXT/UTF8
Codec ID/Info : UTF-8 Plain Text
Duration : 1 h 56 min
Bit rate : 2 b/s
Count of elements : 22
Stream size : 1.80 KiB (0%)
Title : Forced
Language : Russian
Default : Yes
Forced : Yes

Text #2
ID : 6
Format : UTF-8
Codec ID : S_TEXT/UTF8
Codec ID/Info : UTF-8 Plain Text
Duration : 1 h 56 min
Bit rate : 74 b/s
Count of elements : 1165
Stream size : 63.9 KiB (0%)
Title : Full
Language : Russian
Default : No
Forced : No

Text #3
ID : 7
Format : UTF-8
Codec ID : S_TEXT/UTF8
Codec ID/Info : UTF-8 Plain Text
Duration : 1 h 53 min
Bit rate : 42 b/s
Count of elements : 1127
Stream size : 35.0 KiB (0%)
Title : Full
Language : English
Default : No
Forced : No

Menu
00:00:00.000 : en:Chapter 1
00:06:10.537 : en:Chapter 2
00:10:38.680 : en:Chapter 3
00:16:07.091 : en:Chapter 4
00:21:06.098 : en:Chapter 5
00:24:59.206 : en:Chapter 6
00:30:21.737 : en:Chapter 7
00:39:02.840 : en:Chapter 8
00:44:19.740 : en:Chapter 9
00:51:17.992 : en:Chapter 10
01:00:02.599 : en:Chapter 11
01:04:18.855 : en:Chapter 12
01:12:19.585 : en:Chapter 13
01:18:06.974 : en:Chapter 14
01:26:53.625 : en:Chapter 15
01:31:19.474 : en:Chapter 16
01:38:32.782 : en:Chapter 17
01:42:30.186 : en:Chapter 18
01:51:35.689 : en:Chapter 19
01:56:53.256 : en:Chapter 20
КУБКИ

СТАЖ

МЕДАЛИ
Награды:74

За помощь проекту (7) Лучший по количеству кубков (3) За отличные раздачи и качество (24) За подробное оформление раздач (5) За отличные комментарии (6) Почётный форумчанин (5) Верный Сид (20) За участие в конкурсах/играх (2)

Аватара пользователя
Тортуга
kisa1980
Главный помощник Администратора-Корсар
  • Торрент
Для скачивания торрента необходимо зарегистрироваться или войти на трекер.

Вернуться в Фильмы 4К (UHD 4K)



Uptime по данным Ping-Admin.Ru - сервиса мониторинга доступности сайтов
Рейтинг@Mail.ru