logo
Международный русскоязычный
торрент-трекер
Menu

Doublon
Поделиться с друзьями: 
Голосуй за Корсар и получи 150 дублонов
Рейтинг торрент трекеров - UpTracker.ru

Два долгих гудка в тумане (1980, детектив, DVDRip-AVC)

Сообщение Korsar » 28 янв 2017, 09:35

Два долгих гудка в тумане

Жанр: детектив
Год выпуска: 1980
Продолжительность: 01:15:37
Режиссёр: Валерий Родченко
В ролях:
Александр Пороховщиков, Николай Гринько, Елена Капица, Дагун Омаев, Любовь Виролайнен, Виктор Проскурин, Андрей Толубеев, Александр Коваленко, Александр Суснин, Пеэтер Урбла, Николай Федорцов

Описание:
В безлюдной тундре совершает вынужденную посадку гидросамолет, на борту которого инкассаторы везут крупную сумму денег. Неизвестный похищает деньги и убивает свидетеля. А через несколько дней из северного порта отправляется в последний навигационный рейс теплоход, и капитану судна предстоит решить непростую загадку: кто же из пассажиров причастен к убийству и ограблению...
| Сэмпл | Кинопоиск
Качество видео: DVDRip-AVC, благодарю intellect за исходник.
Формат видео: MKV

Видео: x264: (High@L4.1); 692@1180x462 25.000 fps; Display aspect ratio: 2.554:1; 1370 Kbps
Аудио 1: Оригинал: AC-3; 16 bits 48 Khz; 2.0ch 192 Kbps; CBR.
Аудио 2: Оригинал: AC-3; 16 bits 48 Khz; 5.1ch 448 Kbps; CBR.
raw [info]: 692x462p 295:173 @ 25/1 fps (cfr)
x264 [info]: using SAR=295/173
x264 [info]: profile High, level 4.1
x264 [info]: frame I:615 Avg QP:14.98 size: 38724
x264 [info]: frame P:24529 Avg QP:17.05 size: 16380
x264 [info]: frame B:88293 Avg QP:19.32 size: 3980
x264 [info]: consecutive B-frames: 1.9% 1.3% 7.7% 18.6% 24.4% 41.1% 3.9% 1.0% 0.1%
x264 [info]: ref P L0: 40.7% 10.8% 14.1% 7.3% 5.6% 4.2% 3.7% 2.2% 2.0% 1.7% 1.7% 1.4% 1.4% 1.2% 1.2% 0.9%
x264 [info]: ref B L0: 83.7% 6.2% 2.6% 1.8% 1.1% 1.1% 0.7% 0.6% 0.4% 0.5% 0.4% 0.4% 0.3% 0.3% 0.2%
x264 [info]: ref B L1: 98.8% 1.2%
x264 [info]: kb/s:1369.88

General
Unique ID : 220898319363818358627135543243654939400 (0xA62F7802CD619ABFA5AD2FF8216DC308)
Complete name : Два долгих гудка в тумане.1980.mkv
Format : Matroska
Format version : Version 2
File size : 1.06 GiB
Duration : 1h 15mn
Overall bit rate : 2 012 Kbps
Movie name : «Два долгих гудка в тумане»
Encoded date : UTC 2016-09-21 10:52:53
Writing application : mkvmerge v5.8.0 ('No Sleep / Pillow') built on Sep 2 2012 15:37:04
Writing library : libebml v1.2.3 + libmatroska v1.3.0
Comment : DVDRip-AVC
Originally released : September 20th 2016
Encoded by : george$t®

Video
ID : 1
Format : AVC
Format/Info : Advanced Video Codec
Format profile : High@L4.1
Format settings, CABAC : Yes
Format settings, ReFrames : 16 frames
Codec ID : V_MPEG4/ISO/AVC
Duration : 1h 15mn
Bit rate : 1 332 Kbps
Width : 692 pixels
Height : 462 pixels
Display aspect ratio : 2.554
Frame rate mode : Constant
Frame rate : 25.000 fps
Color space : YUV
Chroma subsampling : 4:2:0
Bit depth : 8 bits
Scan type : Progressive
Bits/(Pixel*Frame) : 0.167
Stream size : 720 MiB (66%)
Title : Два долгих гудка в тумане.1980
Writing library : x264 core 148 r2692kMod 64f4e24
Encoding settings : cabac=1 / ref=16 / deblock=1:-2:-2 / analyse=0x3:0x133 / me=umh / subme=10 / psy=1 / fade_compensate=0.00 / psy_rd=1.02:0.10 / mixed_ref=1 / me_range=32 / chroma_me=1 / trellis=2 / 8x8dct=1 / cqm=0 / deadzone=21,11 / fast_pskip=1 / chroma_qp_offset=-3 / threads=12 / lookahead_threads=2 / sliced_threads=0 / nr=0 / decimate=0 / interlaced=0 / bluray_compat=0 / constrained_intra=0 / fgo=0 / bframes=8 / b_pyramid=2 / b_adapt=2 / b_bias=0 / direct=1 / weightb=1 / open_gop=0 / weightp=2 / keyint=250 / keyint_min=25 / scenecut=40 / intra_refresh=0 / rc_lookahead=60 / rc=crf / mbtree=0 / crf=17.4000 / qcomp=0.65 / qpmin=0 / qpmax=69 / qpstep=4 / vbv_maxrate=50000 / vbv_bufsize=62500 / crf_max=0.0 / nal_hrd=none / filler=0 / ip_ratio=1.45 / pb_ratio=1.25 / aq=1:0.70
Language : Russian
Default : Yes
Forced : No
Color primaries : BT.601 PAL
Transfer characteristics : BT.470 System B, BT.470 System G
Matrix coefficients : BT.601

Audio #1
ID : 2
Format : AC-3
Format/Info : Audio Coding 3
Mode extension : CM (complete main)
Format settings, Endianness : Big
Codec ID : A_AC3
Duration : 1h 15mn
Bit rate mode : Constant
Bit rate : 192 Kbps
Channel(s) : 2 channels
Channel positions : Front: L R
Sampling rate : 48.0 KHz
Bit depth : 16 bits
Compression mode : Lossy
Stream size : 104 MiB (10%)
Title : Оригинал: AC-3; 16 bits 48 Khz; 2.0ch 192 Kbps; CBR.
Language : Russian
Default : Yes
Forced : No

Audio #2
ID : 3
Format : AC-3
Format/Info : Audio Coding 3
Mode extension : CM (complete main)
Format settings, Endianness : Big
Codec ID : A_AC3
Duration : 1h 15mn
Bit rate mode : Constant
Bit rate : 448 Kbps
Channel(s) : 6 channels
Channel positions : Front: L C R, Side: L R, LFE
Sampling rate : 48.0 KHz
Bit depth : 16 bits
Compression mode : Lossy
Stream size : 242 MiB (22%)
Title : Оригинал: AC-3; 16 bits 48 Khz; 5.1ch 448 Kbps; CBR.
Language : Russian
Default : No
Forced : No

Автор рипа: george$t

Боцман
Аватара пользователя
Korsar
Помощник Администратора-Корсар
 
 

Награды: 25
За помощь проекту (1) За отличные раздачи и качество (10) За подробное оформление раздач (1) За отличные комментарии (1) Верный Сид (8) За участие в конкурсах (2)
  • Торрент
Для скачивания торрента необходимо зарегистрироваться или войти на трекер.

Вернуться в Кино времён СССР



Uptime по данным Ping-Admin.Ru - сервиса мониторинга доступности сайтов
Рейтинг@Mail.ru