logo
Международный русскоязычный
торрент-трекер
Menu
Поделиться с друзьями: 
Голосуй за Корсар и получи 500 дублонов
Рейтинг торрент трекеров - UpTracker.ru

Дюна / Frank Herbert's Dune / Серии: 01-03 из 03 (2000, фантастика, фэнтези, драма, приключения, экранизация, BDRip-HEVC 1080p) - KORSAR

Сообщение Cthulhu » 26 июл 2020, 21:51

Название: Дюна
Оригинальное название: Frank Herbert's Dune
Год выхода: 2000
Жанр: фантастика, фэнтези, драма, приключения, экранизация
Режиссер: Джон Харрисон
В ролях: Уильям Хёрт, Алек Ньюман, Саския Ривз, П.Х. Мориарти, Иэн МакНис, Мэтт Кислар, Ласло И. Киш, Джанкарло Джаннини, Джули Кокс, Уве Оксенкнехт, Джеймс Уотсон, Роберт Расселл, Лаура Бертон, Жан Унгер, Мирослав Таборски, Барбора Кодетова

О фильме: Один человек. Одна планета. Одна судьба."Дюна" - знаменитый фантастический сериал по классическому роману Фрэнка Херберта, один из лучших образцов жанра "фэнтэзи". Арракис... Дюна... бесплодная пустыня Империи и самая ценная планета в космосе. Поскольку здесь и только здесь была открыта специя. Специя. Без нее в Империи не будет торговли. Не будет цивилизации. Арракис... Дюна... родина специи. Величайшее сокровище Вселенной. Тот, кто завладеет ей, завладеет судьбой. Фильм снят по первому роману из цикла «Хроники Дюны» американского писателя-фантаста Фрэнка Герберта.



Страна: США, Германия, Канада, Италия
Студия: SciFi Channel
Продолжительность: 3 x ~ 01:35:00
Перевод: Профессиональный многоголосый

Качество: BDRip-HEVC 1080p
Формат: MKV
Видео: HEVC, 1912x1080, 7867 - 8163 Кбит/с, 23.976 кадр/с, 10 бит
Звук:
Аудио1: Русская, AC3 448 Кбит/с, 6 канала(ов) MVO
Аудио2: English, AC3 448 Кбит/с, 6 канала(ов) Original
Субтитры: Нет
Навигация по главам: Нет


x265 [info]: frame I: 1004, Avg QP:17.88 kb/s: 30298.90
x265 [info]: frame P: 24534, Avg QP:19.18 kb/s: 21373.08
x265 [info]: frame B: 111999, Avg QP:21.14 kb/s: 5069.72
x265 [info]: consecutive B-frames: 4.4% 0.7% 1.4% 20.5% 9.6% 54.0% 4.0% 4.0% 0.4% 0.5% 0.4%

General
Unique ID : 175841114230412004918307794941666596935 (0x8449C448BFFF1D215958287228CB1847)
Complete name : H:\HEVC4\Frank Herbert's Dune (2000)\Дюна. Часть1 - Frank Herbert's Dune. Part1 (2000) BDRip-HEVC 1080p - KORSAR.mkv
Format : Matroska
Format version : Version 4 / Version 2
File size : 6.04 GiB
Duration : 1 h 35 min
Overall bit rate : 9 060 kb/s
Movie name : Frank Herbert's Dune. Part1 (2000)_rip_by_Cthulhu
Encoded date : UTC 2020-07-26 13:56:24
Writing application : mkvmerge v46.0.0 ('No Deeper Escape') 64-bit
Writing library : libebml v1.3.10 + libmatroska v1.5.2
Cover : Yes
Attachments : cover3.jpg

Video
ID : 1
Format : HEVC
Format/Info : High Efficiency Video Coding
Format profile : Main 10@L4.1@High
Codec ID : V_MPEGH/ISO/HEVC
Duration : 1 h 35 min
Bit rate : 8 163 kb/s
Width : 1 912 pixels
Height : 1 080 pixels
Display aspect ratio : 16:9
Frame rate mode : Constant
Frame rate : 24.000 FPS
Color space : YUV
Chroma subsampling : 4:2:0
Bit depth : 10 bits
Bits/(Pixel*Frame) : 0.165
Stream size : 5.45 GiB (90%)
Writing library : x265 3.3+2-gbe2d82093:[Windows][GCC 10.0.1][64 bit] 10bit
Encoding settings : cpuid=1111039 / frame-threads=4 / numa-pools=16 / wpp / no-pmode / no-pme / no-psnr / no-ssim / log-level=2 / input-csp=1 / input-res=1912x1080 / interlace=0 / total-frames=137537 / level-idc=41 / high-tier=1 / uhd-bd=0 / ref=5 / no-allow-non-conformance / no-repeat-headers / annexb / no-aud / no-hrd / info / hash=0 / no-temporal-layers / open-gop / min-keyint=24 / keyint=240 / gop-lookahead=0 / bframes=10 / b-adapt=2 / b-pyramid / bframe-bias=0 / rc-lookahead=60 / lookahead-slices=1 / scenecut=40 / hist-scenecut=0 / radl=0 / no-splice / no-intra-refresh / ctu=32 / min-cu-size=8 / rect / amp / max-tu-size=32 / tu-inter-depth=4 / tu-intra-depth=4 / limit-tu=1 / rdoq-level=2 / dynamic-rd=0.00 / no-ssim-rd / signhide / no-tskip / nr-intra=0 / nr-inter=0 / no-constrained-intra / no-strong-intra-smoothing / max-merge=5 / limit-refs=3 / limit-modes / me=3 / subme=7 / merange=57 / temporal-mvp / no-frame-dup / hme / Level / merange / L0,L1,L2=16,32,57 / weightp / weightb / no-analyze-src-pics / deblock=-3:-2 / no-sao / no-sao-non-deblock / rd=6 / selective-sao=0 / no-early-skip / rskip / rskip-edge-threshold=0.050000 / no-fast-intra / no-tskip-fast / no-cu-lossless / b-intra / no-splitrd-skip / rdpenalty=0 / psy-rd=1.70 / psy-rdoq=1.00 / no-rd-refine / no-lossless / cbqpoffs=0 / crqpoffs=0 / rc=crf / crf=20.0 / qcomp=0.65 / qpstep=4 / stats-write=0 / stats-read=0 / vbv-maxrate=50000 / vbv-bufsize=50000 / vbv-init=0.9 / crf-max=0.0 / crf-min=0.0 / ipratio=1.40 / pbratio=1.30 / aq-mode=1 / aq-strength=1.00 / no-cutree / zone-count=0 / no-strict-cbr / qg-size=32 / no-rc-grain / qpmax=69 / qpmin=0 / no-const-vbv / sar=1 / overscan=0 / videoformat=5 / range=0 / colorprim=1 / transfer=1 / colormatrix=1 / chromaloc=0 / display-window=0 / cll=0,0 / min-luma=0 / max-luma=1023 / log2-max-poc-lsb=8 / vui-timing-info / vui-hrd-info / slices=1 / no-opt-qp-pps / no-opt-ref-list-length-pps / no-multi-pass-opt-rps / scenecut-bias=0.05 / hist-threshold=0.01 / no-opt-cu-delta-qp / no-aq-motion / no-hdr10 / no-hdr10-opt / no-dhdr10-opt / no-idr-recovery-sei / analysis-reuse-level=0 / analysis-save-reuse-level=0 / analysis-load-reuse-level=0 / scale-factor=0 / refine-intra=0 / refine-inter=0 / refine-mv=1 / refine-ctu-distortion=0 / no-limit-sao / ctu-info=0 / no-lowpass-dct / refine-analysis-type=0 / copy-pic=1 / max-ausize-factor=1.0 / no-dynamic-refine / no-single-sei / no-hevc-aq / no-svt / no-field / qp-adaptation-range=1.00 / no-scenecut-aware-qpconformance-window-offsets / right=0 / bottom=0
Language : English
Default : Yes
Forced : No
Color range : Limited
Color primaries : BT.709
Transfer characteristics : BT.709
Matrix coefficients : BT.709

Audio #1
ID : 2
Format : AC-3
Format/Info : Audio Coding 3
Commercial name : Dolby Digital
Codec ID : A_AC3
Duration : 1 h 35 min
Bit rate mode : Constant
Bit rate : 448 kb/s
Channel(s) : 6 channels
Channel layout : L R C LFE Ls Rs
Sampling rate : 48.0 kHz
Frame rate : 31.250 FPS (1536 SPF)
Bit depth : 16 bits
Compression mode : Lossy
Stream size : 306 MiB (5%)
Title : MVO
Language : Russian
Service kind : Complete Main
Default : Yes
Forced : No

Audio #2
ID : 3
Format : AC-3
Format/Info : Audio Coding 3
Commercial name : Dolby Digital
Codec ID : A_AC3
Duration : 1 h 35 min
Bit rate mode : Constant
Bit rate : 448 kb/s
Channel(s) : 6 channels
Channel layout : L R C LFE Ls Rs
Sampling rate : 48.0 kHz
Frame rate : 31.250 FPS (1536 SPF)
Bit depth : 16 bits
Compression mode : Lossy
Stream size : 306 MiB (5%)
Language : English
Service kind : Complete Main
Default : No
Forced : No



Автор: Cthulhu
Просьба отключить блокировщики рекламы на странице скриншотов по адресу: http://3.lostpic.net/, этим Вы поможете существованию проекта. Заранее спасибо!
КУБКИ

СТАЖ

МЕДАЛИ
Награды:114

Пожизненный VIP+ (2) За активную помощь проекту (18) Лучший по количеству кубков (2) За отличные раздачи и качество (60) За подробное оформление раздач (1) За отличные комментарии (7) Почётный форумчанин (3) Верный Сид (20)

Аватара пользователя
СССР
Cthulhu
Помощник Администратора-Корсар
Раздачи группы KORSAR доступны тем кто раздал не менее 15 гиг, а перезаливать разрешено только спустя 14 дней после публикации и с обязательным добавлением банера!!!
  • Торрент
Для скачивания торрента необходимо зарегистрироваться или войти на трекер.

Сообщение kwazar312 » 27 июл 2020, 09:25

Решил(после долгих колебаний,очень хорошо зная содержание романа) преступить к просмотру данной экранизации. Она оказалось 'академической' в лучшем смысле этого слова.
Сюжет передан довольно точно в отличие от фильма 1984 года, где все было скомкано. Формат мини-сериала наиболее подходит для такого произведения.
Актеры. Практически весь каст идеально вписывается. Особенно запомнился Иэн МакНис в роли Владимира Харконнена. Именно таким он представлялся при прочтении книги. Также точно попадание в образ Уильяма Херта. Только разочаровала актриса, играющая Джессику. И то, скорее типажом, а не актерской игрой.
Атмосфера/спецэффекты. Для современного зрителя это будет смотреться как первые части Звездных войн (они то мне и нравятся больше современных именно из-за атмосферы). Слабые спецэффекты перекрываются прекрасно переданной атмосферой Арракиса. Ты как-будто сам оказываешься в песках среди червей и фрименов.
В итоге имеем прекрасное приключение на Арракис..планету-пустыню..Дюну.
Уважаемый Cthulhu,спасибо за HEVC.
:hi: :preved: :good:
КУБКИ

СТАЖ

МЕДАЛИ
Награды:148

Пожизненный VIP+ (3) За активную помощь проекту (14) Лучший по количеству кубков (46) За отличные раздачи и качество (3) За отличные комментарии (26) Почётный форумчанин (1) Верный Сид (49) За участие в конкурсах/играх (6)

Аватара пользователя
kwazar312
Заслуженный Корсар-VIP+

Сообщение joker1001 » 01 авг 2020, 12:03

2 часть с 1ч.14мин рассинхрон, кто скачал проверьте
СТАЖ

МЕДАЛИ


Аватара пользователя
joker1001
Опытный Корсар

Сообщение joker1001 » 01 авг 2020, 14:42

3 часть 1:23:00
СТАЖ

МЕДАЛИ


Аватара пользователя
joker1001
Опытный Корсар

Сообщение Cthulhu » 02 авг 2020, 21:12

joker1001, спасибо за сообщение. Рассинхрон действительно был.
Устранено. Торрент-файл обновлен.
КУБКИ

СТАЖ

МЕДАЛИ
Награды:114

Пожизненный VIP+ (2) За активную помощь проекту (18) Лучший по количеству кубков (2) За отличные раздачи и качество (60) За подробное оформление раздач (1) За отличные комментарии (7) Почётный форумчанин (3) Верный Сид (20)

Аватара пользователя
СССР
Cthulhu
Помощник Администратора-Корсар

Сообщение kwazar312 » 04 авг 2020, 08:46

Cthulhu писал(а):Устранено. Торрент-файл обновлен.

Уважаемый Cthulhu , :pirat3: :senks:
:hi: :hi: :-drinks:
КУБКИ

СТАЖ

МЕДАЛИ
Награды:148

Пожизненный VIP+ (3) За активную помощь проекту (14) Лучший по количеству кубков (46) За отличные раздачи и качество (3) За отличные комментарии (26) Почётный форумчанин (1) Верный Сид (49) За участие в конкурсах/играх (6)

Аватара пользователя
kwazar312
Заслуженный Корсар-VIP+


Вернуться в Зарубежные сериалы (HEVC Video)



Рейтинг@Mail.ru