logo
Международный русскоязычный
торрент-трекер
Menu

Магазин-KorsaRDoublon

Поделиться с друзьями: 
Голосуй и получи дублоны
Рейтинг торрент трекеров - UpTracker.ru

Другие ипостаси / Altered States (1980, ужасы, фантастика, триллер, BDRip 1080p)

Сообщение msltel » 11 янв 2017, 13:14

#777
Название: Другие ипостаси
Оригинальное название: Altered States
Год выпуска: 1980
Страна: США
Жанр: ужасы, фантастика, триллер
Продолжительность: 01:42:44
Перевод: профессиональный многоголосый, профессиональный двухголосый, авторский

Режиссёр: Кен Расселл

В ролях: Уильям Хёрт, Блэр Браун, Боб Бэлабан, Чарльз Хейд, Таао Пенглис, Дори Бреннер, Питер Брэндон, Чарльз Уайт-Игл, Дрю Бэрримор, Миган Джефферс, Джек Мердок, Фрэнсис З. МакКарти, Эван Ричардс, Хэп Лоуренс, Джон Уолтер Дэвис, Синтия Барр, Джон Ларрокетт, Джордж Гейнс, Ора Рубинштейн, Пол Ларссон, Эрик Форст, Адриана Шоу, Оливия Мишель

Описание: Учёный-естествоиспытатель Эдди Джессап верит в то, что изменённые состояния сознания так же реальны, как наша повседневная действительность. Отключая органы чувств под действием галлюциногенных препаратов, он исследует другие ипостаси, лавируя в потоке своего сознания...



Качество: BDRip 1080p
Формат: MKV
Видео: MPEG-4 AVC, 12 Mбит/с, 1920x1080, 23,976 кадра/с
Аудио 1: русский, AC3, 256 kbps, 2 ch, 48 kHz [профессиональный многоголосый]
Аудио 2: русский, AC3, 192 kbps, 2 ch, 48 kHz [профессиональный двухголосый]
Аудио 3: русский, DTS, 1509 kbps, 6 ch, 48 kHz [авторский, Сергей Визгунов]
Аудио 4: английский, DTS, 1509 kbps, 6 ch, 48 kHz [оригинал]
Субтитры 1: русские
Субтитры 2: английские (для слабослышащих)
Имеются неименованные главы/чаптеры.

Общее
Уникальный идентификатор : 186240713776080990714914501496969413302 (0x8C1CA820EF3BC61599E2D9D5C514C2B6)
Полное имя : D:\Video\Другие ипостаси.1980.BDRip.1080p by msltel.mkv
Формат : Matroska
Версия формата : Version 4 / Version 2
Размер файла : 11,1 Гбайт
Продолжительность : 1 ч. 42 м.
Общий поток : 15,4 Мбит/сек
Название фильма : Rip by msltel
Дата кодирования : UTC 2017-01-11 03:18:14
Программа кодирования : mkvmerge v8.2.0 ('World of Adventure') 64bit
Библиотека кодирования : libebml v1.3.1 + libmatroska v1.4.2

Видео
Идентификатор : 1
Формат : AVC
Формат/Информация : Advanced Video Codec
Профиль формата : High@L4.1
Параметр CABAC формата : Да
Параметр ReFrames формата : 4 кадра
Идентификатор кодека : V_MPEG4/ISO/AVC
Продолжительность : 1 ч. 42 м.
Битрейт : 12,0 Мбит/сек
Ширина : 1920 пикселей
Высота : 1080 пикселей
Соотношение сторон : 16:9
Режим частоты кадров : Постоянный
Частота кадров : 23,976 (24000/1001) кадра/сек
Цветовое пространство : YUV
Субдискретизация насыщенности : 4:2:0
Битовая глубина : 8 бит
Тип развёртки : Прогрессивная
Бит/(Пиксели*Кадры) : 0.240
Размер потока : 8,58 Гбайт (78%)
Библиотека кодирования : x264 core 146 r2538 121396c
Настройки программы : cabac=1 / ref=4 / deblock=1:-3:-2 / analyse=0x3:0x113 / me=umh / subme=11 / psy=1 / psy_rd=1.00:0.15 / mixed_ref=1 / me_range=32 / chroma_me=1 / trellis=2 / 8x8dct=1 / cqm=0 / deadzone=21,11 / fast_pskip=0 / chroma_qp_offset=-3 / threads=6 / lookahead_threads=1 / sliced_threads=0 / nr=0 / decimate=1 / interlaced=0 / bluray_compat=0 / constrained_intra=0 / bframes=9 / b_pyramid=2 / b_adapt=2 / b_bias=0 / direct=1 / weightb=0 / open_gop=0 / weightp=2 / keyint=230 / keyint_min=23 / scenecut=40 / intra_refresh=0 / rc_lookahead=40 / rc=crf / mbtree=0 / crf=17.4 / qcomp=0.60 / qpmin=0 / qpmax=69 / qpstep=4 / vbv_maxrate=62500 / vbv_bufsize=78125 / crf_max=0.0 / nal_hrd=none / filler=0 / ip_ratio=1.40 / pb_ratio=1.30 / aq=1:1.00
Язык : English
Default : Да
Forced : Нет

Аудио #1
Идентификатор : 2
Формат : AC-3
Формат/Информация : Audio Coding 3
Расширение режима : CM (complete main)
Параметр Endianness формата : Big
Идентификатор кодека : A_AC3
Продолжительность : 1 ч. 42 м.
Вид битрейта : Постоянный
Битрейт : 256 Кбит/сек
Каналы : 2 канала
Расположение каналов : Front: L R
Частота : 48,0 КГц
Частота кадров : 31,250 кадров/сек (1536 spf)
Метод сжатия : С потерями
Размер потока : 188 Мбайт (2%)
Заголовок : MVO
Язык : Russian
Default : Да
Forced : Нет

Аудио #2
Идентификатор : 3
Формат : AC-3
Формат/Информация : Audio Coding 3
Расширение режима : CM (complete main)
Параметр Endianness формата : Big
Идентификатор кодека : A_AC3
Продолжительность : 1 ч. 42 м.
Вид битрейта : Постоянный
Битрейт : 192 Кбит/сек
Каналы : 2 канала
Расположение каналов : Front: L R
Частота : 48,0 КГц
Частота кадров : 31,250 кадров/сек (1536 spf)
Метод сжатия : С потерями
Размер потока : 141 Мбайт (1%)
Заголовок : DVO
Язык : Russian
Default : Нет
Forced : Нет

Аудио #3
Идентификатор : 4
Формат : DTS
Формат/Информация : Digital Theater Systems
Режим : 16
Параметр Endianness формата : Big
Идентификатор кодека : A_DTS
Продолжительность : 1 ч. 42 м.
Вид битрейта : Постоянный
Битрейт : 1509 Кбит/сек
Каналы : 6 каналов
Расположение каналов : Front: L C R, Side: L R, LFE
Частота : 48,0 КГц
Частота кадров : 93,750 кадра/сек (512 spf)
Битовая глубина : 24 бит
Метод сжатия : С потерями
Размер потока : 1,08 Гбайт (10%)
Заголовок : AVO (Сергей Визгунов)
Язык : Russian
Default : Нет
Forced : Нет

Аудио #4
Идентификатор : 5
Формат : DTS
Формат/Информация : Digital Theater Systems
Режим : 16
Параметр Endianness формата : Big
Идентификатор кодека : A_DTS
Продолжительность : 1 ч. 42 м.
Вид битрейта : Постоянный
Битрейт : 1509 Кбит/сек
Каналы : 6 каналов
Расположение каналов : Front: L C R, Side: L R, LFE
Частота : 48,0 КГц
Частота кадров : 93,750 кадра/сек (512 spf)
Битовая глубина : 24 бит
Метод сжатия : С потерями
Размер потока : 1,08 Гбайт (10%)
Заголовок : original
Язык : English
Default : Нет
Forced : Нет

Текст #1
Идентификатор : 6
Формат : UTF-8
Идентификатор кодека : S_TEXT/UTF8
Идентификатор кодека/Информация : UTF-8 Plain Text
Продолжительность : 1 ч. 37 м.
Битрейт : 95 бит/сек
Count of elements : 944
Размер потока : 68,2 Кбайт (0%)
Заголовок : русские
Язык : Russian
Default : Нет
Forced : Нет

Текст #2
Идентификатор : 7
Формат : UTF-8
Идентификатор кодека : S_TEXT/UTF8
Идентификатор кодека/Информация : UTF-8 Plain Text
Продолжительность : 1 ч. 42 м.
Битрейт : 57 бит/сек
Count of elements : 1050
Размер потока : 43,3 Кбайт (0%)
Заголовок : английские (для слабослышащих)
Язык : English
Default : Нет
Forced : Нет

Меню
00:00:00.000 : :Chapter 01
00:02:17.886 : :Chapter 02
00:03:48.602 : :Chapter 03
00:06:39.731 : :Chapter 04
00:09:08.506 : :Chapter 05
00:13:09.622 : :Chapter 06
00:15:05.446 : :Chapter 07
00:19:04.726 : :Chapter 08
00:23:42.128 : :Chapter 09
00:25:28.610 : :Chapter 10
00:28:14.609 : :Chapter 11
00:30:41.130 : :Chapter 12
00:37:03.054 : :Chapter 13
00:42:38.847 : :Chapter 14
00:46:23.197 : :Chapter 15
00:49:39.101 : :Chapter 16
00:53:06.725 : :Chapter 17
00:56:37.477 : :Chapter 18
01:01:37.944 : :Chapter 19
01:04:51.637 : :Chapter 20
01:09:23.993 : :Chapter 21
01:13:17.975 : :Chapter 22
01:17:04.369 : :Chapter 23
01:20:58.603 : :Chapter 24
01:24:02.871 : :Chapter 25
01:30:02.354 : :Chapter 26
01:33:05.871 : :Chapter 27
01:35:18.129 : :Chapter 28
01:37:37.184 : :Chapter 29
01:39:09.234 : :Chapter 30
01:39:54.321 : :Chapter 31
01:42:44.032 : :Chapter 32


Аватара пользователя
msltel
Уважаемый Релизёр-Корсар
 
Месяцев на трекере: 5Месяцев на трекере: 5Месяцев на трекере: 5Месяцев на трекере: 5Месяцев на трекере: 5
 

Награды: 1
Верный Сид (1)
  • Торрент
Для скачивания торрента необходимо зарегистрироваться или войти на трекер.

Вернуться в Классика зарубежного кино (фильмы до 1980 года / HD Video)



проверить сайт