logo
Международный русскоязычный
торрент-трекер
Menu
"Бунт на корабле", за скачанные торрент-файлы дублоны не снимаются. Возможность оплачена пользователем Gogen.
Doublon
Поделиться с друзьями: 
Голосуй за Корсар и получи 500 дублонов
Рейтинг торрент трекеров - UpTracker.ru

Донбасс. Окраина (2018, драма, военный, триллер, WEB-DL 1080p) | iTunes

Сообщение CHANNEL COOL » 10 июл 2019, 00:25

Название: Донбасс. Окраина
Год выхода: 2018
Жанр: Драма, военный, триллер
Режиссер: Ренат Давлетьяров
В ролях: Гела Месхи, Евгений Михеев, Сергей Холмогоров, Ульяна Курочкина, Анна Пескова, Женя Малахова, Валентина Попова, Иван Неклюдов, Владимир Сорков

О фильме: Август 2014 года, окраина Донецка. Молодой солдат украинской армии Андрей Соколов направлен в зону военных действий водителем. Спасаясь от обстрела, он попадает в подвал жилого дома, где знакомится с несколькими совершенно разными людьми. Они пришли с разных сторон, у них разные судьбы и мировоззрение, но сейчас они объединены одной целью — выжить.



Страна: Россия
Студия: Интерфест, Пропеллер Продакшн
Продолжительность: 01:32:29
Перевод: Не требуется

Качество: WEB-DL 1080p
Формат: MKV
Видео: 1920x806 (2,40:1), 25 fps, MPEG-4 AVC ~ 4542 Кbps avg, 0.117 bit/pixel
Аудио: AC3, 48 kHz, 6 ch, ~384.00 kbps avg | русский | iTunes
Субтитры: Нет

Общее
Уникальный идентификатор : 284453063972344027099856587929987566318 (0xD5FFAAD89C1D1998EC6A93304457CAEE)
Полное имя : DONBASS_OKRAINA (2018) WEB-DL 1080p.mkv
Формат : Matroska
Версия формата : Version 4 / Version 2
Размер файла : 3,18 Гбайт
Продолжительность : 1 ч. 32 м.
Общий поток : 4928 Кбит/сек
Название фильма : Донбасс. Окраина (2018)
Дата кодирования : UTC 2019-07-09 20:25:42
Программа кодирования : mkvmerge v27.0.0 ('Metropolis') 64-bit
Библиотека кодирования : libebml v1.3.6 + libmatroska v1.4.9
Обложка : Yes
Attachments : cover.jpg

Видео
Идентификатор : 1
Формат : AVC
Формат/Информация : Advanced Video Codec
Профиль формата : High@L4
Настройки формата : CABAC / 5 Ref Frames
Параметр CABAC формата : Да
Параметр RefFrames формата : 5 кадров
Идентификатор кодека : V_MPEG4/ISO/AVC
Продолжительность : 1 ч. 32 м.
Битрейт : 4542 Кбит/сек
Ширина : 1920 пикселей
Высота : 806 пикселей
Соотношение сторон : 2,40:1
Режим частоты кадров : Постоянный
Частота кадров : 25,000 кадров/сек
Цветовое пространство : YUV
Субдискретизация насыщенности : 4:2:0
Битовая глубина : 8 бит
Тип развёртки : Прогрессивная
Бит/(Пиксели*Кадры) : 0.117
Размер потока : 2,93 Гбайт (92%)
Язык : English
Default : Да
Forced : Нет
Цветовой диапазон : Limited
Основные цвета : BT.709
Характеристики трансфера : BT.709
Коэффициенты матрицы : BT.709

Аудио
Идентификатор : 2
Формат : AC-3
Формат/Информация : Audio Coding 3
Идентификатор кодека : A_AC3
Продолжительность : 1 ч. 32 м.
Вид битрейта : Постоянный
Битрейт : 384 Кбит/сек
Каналы : 6 каналов
Расположение каналов : Front: L C R, Side: L R, LFE
Частота : 48,0 КГц
Частота кадров : 31,250 кадров/сек (1536 SPF)
Битовая глубина : 16 бит
Метод сжатия : С потерями
Задержка видео : -40 мс.
Размер потока : 254 Мбайт (8%)
Заголовок : iTunes | DONBASS_OKRAINA (2018) WEB-DL 1080p
Язык : Russian
Default : Да
Forced : Да

Меню
00:00:00.000 : en:Глава 1
00:06:41.840 : en:Глава 2
00:16:00.960 : en:Глава 3
00:24:59.480 : en:Глава 4
00:30:34.560 : en:Глава 5
00:36:51.320 : en:Глава 6
00:44:06.280 : en:Глава 7
00:49:45.640 : en:Глава 8
00:56:34.600 : en:Глава 9
01:02:35.880 : en:Глава 10
01:07:55.520 : en:Глава 11
01:14:35.520 : en:Глава 12
01:21:40.280 : en:Глава 13

МЕДАЛИ
Награды:5



Аватара пользователя
Ukraine
CHANNEL COOL
Релизёр-Корсар
  • Торрент
Для скачивания торрента необходимо зарегистрироваться или войти на трекер.

Сообщение dimas » 10 июл 2019, 00:39

Спасибо за новинку! :senks2:
КУБКИ

СТАЖ

МЕДАЛИ
Награды:5

За отличные комментарии (5)

Аватара пользователя
dimas
Опытный Корсар

Сообщение kwazar312 » 10 июл 2019, 17:50

Уважаемые CHANNEL COOL и kisa1980 ,спасибо за раздачу новинки.
:hi: :preved: :victory:
КУБКИ

СТАЖ

МЕДАЛИ
Награды:111

За помощь проекту (11) Лучший по количеству кубков (29) За отличные раздачи и качество (2) За отличные комментарии (21) Почётный форумчанин (2) Верный Сид (40) За участие в конкурсах/играх (6)

Аватара пользователя
kwazar312
Заслуженный Корсар-Вип


Вернуться в Наше современное кино (HD Video)



Uptime по данным Ping-Admin.Ru - сервиса мониторинга доступности сайтов
Рейтинг@Mail.ru Голосуйте за наш сайт в каталоге Rubo.Ru