logo
Международный русскоязычный
торрент-трекер
Menu
Doublon
Поделиться с друзьями: 
Голосуй за Корсар и получи 400 дублонов
Рейтинг торрент трекеров - UpTracker.ru

Долгие проводы (1971, Мелодрама, SATRip-AVC) - KORSAR

Сообщение filbi1976 » 22 авг 2017, 14:34

Информация о фильме
Название: Долгие проводы
Год выпуска: 1971
Жанр: Мелодрама
Режиссер: Кира Муратова
В ролях: Зинаида Шарко, Олег Владимирский, Юрий Каюров, Светлана Кабанова, Лидия Базильская, Татьяна Мычко, Лидия Драновская, Марчелла Чеботаренко, Игорь Старков, Евгений Коваленко

О фильме: Сложные отношения у Евгении Васильевны с сыном-старшеклассником Сашей. Выросший без отца, давно оставившего семью, он стал тяготиться чрезмерной опекой матери, души в нем не чаявшей. Побывав во время летних каникул у отца, поработав вместе с ним в археологической экспедиции, юноша, желая обрести независимость, хочет переехать в Новосибирск. Узнав об этом, Евгения Васильевна пытается удержать Сашу, еще сильнее досаждая ему. Поначалу парень непреклонен, но потом, осознав, как в сущности она одинока и беззащитна, меняет своё решение...



Выпущено: СССР, Одесская киностудия
Продолжительность: 01:30:02
Перевод: Не требуется

Файл
Кодек: х264
Качество: SATRip-AVC
Видео: MPEG-4 AVC, 696x570@742x570, 25 fps, 2017 Кбит/с
Звук: AC3, 2 ch, 192 Кбит/с


  • x264 [info]: frame I:678 Avg QP:17.81 size: 51682
  • x264 [info]: frame P:32721 Avg QP:19.59 size: 23914
  • x264 [info]: frame B:101661 Avg QP:22.02 size: 5645
Общее
Уникальный идентификатор : 187953952911874424139679851692226999679 (0x8D669D56F15F34AE925828D4F56F757F)
Полное имя : D:\Долгие проводы_1971-SATRip-AVC.mkv
Формат : Matroska
Версия формата : Version 2
Размер файла : 1,42 Гбайт
Продолжительность : 1 ч. 30 м.
Общий поток : 2254 Кбит/сек
Дата кодирования : UTC 2017-08-22 12:13:14
Программа кодирования : mkvmerge v5.8.0 ('No Sleep / Pillow') built on Sep 2 2012 15:37:04
Библиотека кодирования : libebml v1.2.3 + libmatroska v1.3.0

Видео
Идентификатор : 1
Формат : AVC
Формат/Информация : Advanced Video Codec
Профиль формата : High@L4.1
Параметр CABAC формата : Да
Параметр RefFrames формата : 16 кадров
Идентификатор кодека : V_MPEG4/ISO/AVC
Продолжительность : 1 ч. 30 м.
Битрейт : 2017 Кбит/сек
Ширина : 696 пикселей
Высота : 570 пикселей
Соотношение сторон : 4:3
Режим частоты кадров : Постоянный
Частота кадров : 25,000 кадров/сек
Цветовое пространство : YUV
Субдискретизация насыщенности : 4:2:0
Битовая глубина : 8 бит
Тип развёртки : Прогрессивная
Бит/(Пиксели*Кадры) : 0.203
Размер потока : 1,27 Гбайт (89%)
Библиотека кодирования : x264 core 148 r2744kMod b97ae06
Настройки программы : cabac=1 / ref=16 / deblock=1:-2:-1 / analyse=0x3:0x133 / me=umh / subme=10 / psy=1 / fade_compensate=0.00 / psy_rd=1.05:0.10 / mixed_ref=1 / me_range=32 / chroma_me=1 / trellis=2 / 8x8dct=1 / cqm=0 / deadzone=21,11 / fast_pskip=1 / chroma_qp_offset=-3 / threads=12 / lookahead_threads=3 / sliced_threads=0 / nr=0 / decimate=1 / interlaced=0 / bluray_compat=0 / constrained_intra=0 / bframes=10 / b_pyramid=2 / b_adapt=2 / b_bias=0 / direct=1 / weightb=1 / open_gop=0 / weightp=2 / keyint=250 / keyint_min=25 / scenecut=40 / intra_refresh=0 / rc=crf / mbtree=0 / crf=18.0000 / qcomp=0.63 / qpmin=0 / qpmax=39 / qpstep=4 / ip_ratio=1.40 / pb_ratio=1.30 / aq=1:1.00
Язык : English
Default : Да
Forced : Нет
Цветовой диапазон : Limited
Основные цвета : BT.601 PAL
Характеристики трансфера : BT.470 System B, BT.470 System G
Коэффициенты матрицы : BT.601

Аудио
Идентификатор : 2
Формат : AC-3
Формат/Информация : Audio Coding 3
Параметр Endianness формата : Big
Идентификатор кодека : A_AC3
Продолжительность : 1 ч. 30 м.
Вид битрейта : Постоянный
Битрейт : 192 Кбит/сек
Каналы : 2 канала
Расположение каналов : Front: L R
Частота : 48,0 КГц
Частота кадров : 31,250 кадров/сек (1536 SPF)
Битовая глубина : 16 бит
Метод сжатия : С потерями
Размер потока : 124 Мбайт (9%)
ServiceKind/String : Complete Main
Default : Да
Forced : Нет

Меню
00:00:00.000 : en:Chapter 1
00:10:00.000 : en:Chapter 2
00:20:16.320 : en:Chapter 3
00:30:09.600 : en:Chapter 4
00:40:03.360 : en:Chapter 5
00:49:57.120 : en:Chapter 6
01:00:01.920 : en:Chapter 7
01:10:17.760 : en:Chapter 8
01:20:22.560 : en:Chapter 9
01:28:52.320 : en:Chapter 10

КУБКИ

СТАЖ

МЕДАЛИ
Награды:69

За помощь проекту (1) За отличные раздачи и качество (50) За отличные комментарии (1) Верный Сид (14) За участие в конкурсах/играх (1)

Аватара пользователя
Тортуга
filbi1976
Администратор-Корсар
Раздачи группы KORSAR разрешено перезаливать спустя сутки после публикации
  • Торрент
Для скачивания торрента необходимо зарегистрироваться или войти на трекер.

Сообщение verybigpapa » 22 авг 2017, 15:30

Уважаемый filbi1976, большое спасибо. :hi: :respect:
Улыбайтесь, господа! Улыбайтесь!
КУБКИ

СТАЖ

МЕДАЛИ
Награды:40

За помощь проекту (15) Лучший по количеству кубков (9) За отличные комментарии (5) Верный Сид (11)

Аватара пользователя
СССР
verybigpapa
Заслуженный Корсар-Вип

Сообщение kwazar312 » 22 авг 2017, 16:00

Уважаемый filbi1976,большое спасибо за хороший фильм.
Удачи ВАМ.
КУБКИ

СТАЖ

МЕДАЛИ
Награды:70

За помощь проекту (7) Лучший по количеству кубков (19) За отличные комментарии (11) Верный Сид (27) За участие в конкурсах/играх (6)

Аватара пользователя
kwazar312
Заслуженный Корсар-Вип

Сообщение Бользен » 22 авг 2017, 17:01

Благодарю.
КУБКИ

СТАЖ

МЕДАЛИ
Награды:5

Лучший по количеству кубков (1) За отличные комментарии (1) Верный Сид (3)

Аватара пользователя
СССР
Бользен
Уважаемый Корсар

Сообщение dzalaev » 22 авг 2017, 17:17

Сергей, большое Вам спасибо! Один из лучших советских фильмов на рубеже 60-70 годов! И наверное самый искренний фильм в творчестве прекрасного режиссера Киры Муратовой. :hi: :good:
КУБКИ

СТАЖ

МЕДАЛИ
Награды:8

За помощь проекту (2) За отличные комментарии (4) Верный Сид (2)

Аватара пользователя
СССР
dzalaev
Опытный Корсар

Сообщение bortnikov » 22 авг 2017, 22:58

Спасибо, Сергей, за хороший фильм в хорошем качестве.
КУБКИ

СТАЖ

МЕДАЛИ
Награды:8

Лучший по количеству кубков (4) Верный Сид (4)

Аватара пользователя
Belarus
bortnikov
Уважаемый Корсар

Сообщение filbi1976 » 23 авг 2017, 19:53

Всем пожалуйста! :hi:
КУБКИ

СТАЖ

МЕДАЛИ
Награды:69

За помощь проекту (1) За отличные раздачи и качество (50) За отличные комментарии (1) Верный Сид (14) За участие в конкурсах/играх (1)

Аватара пользователя
Тортуга
filbi1976
Администратор-Корсар

Сообщение petrov5676 » 23 авг 2017, 23:03

Отличный фильм и отличная актерская работа Зинаиды Шарко!

Второй фильм Киры Муратовой, который с интересом посмотрел, после фильма "Познавая белый свет" 1979). До остальных работ режиссера пока еще не созрел...
КУБКИ

СТАЖ

МЕДАЛИ
Награды:9

За отличные комментарии (8) За участие в конкурсах/играх (1)

Аватара пользователя
petrov5676
Опытный Корсар

Сообщение bortnikov » 27 янв 2018, 18:18

Прошу скачавших фильм встать на раздачу. Спасибо.
КУБКИ

СТАЖ

МЕДАЛИ
Награды:8

Лучший по количеству кубков (4) Верный Сид (4)

Аватара пользователя
Belarus
bortnikov
Уважаемый Корсар

Сообщение kwazar312 » 27 янв 2018, 21:21

Фильм на раздаче,скачивайте пожалуйста.
Удачи.
КУБКИ

СТАЖ

МЕДАЛИ
Награды:70

За помощь проекту (7) Лучший по количеству кубков (19) За отличные комментарии (11) Верный Сид (27) За участие в конкурсах/играх (6)

Аватара пользователя
kwazar312
Заслуженный Корсар-Вип

Сообщение kwazar312 » 18 ноя 2018, 14:43

Скандальный для советской действительности режиссер Кира Муратова, всегда рисует фантастические миры, очень похожие на нашу реальную жизнь, но всё же это вымышлено. А она же не столь важна, эта действительность, для Муратовой важна какая-та более бесформенная и возвышенная субстанция, поэзия, если хотите. Кира Муратова и её миры это целый самостоятельный пласт в искусстве кино, но что более важно (для меня) и в советском кино. Совершенно не важно, что она не принятая, не народная, но она самобытная и интереснее, чем всё, что её окружало и окружает. Паспорт эпохи? А зачем? Паспортистов всегда хватало.
...фильм на раздаче,скачивайте...
КУБКИ

СТАЖ

МЕДАЛИ
Награды:70

За помощь проекту (7) Лучший по количеству кубков (19) За отличные комментарии (11) Верный Сид (27) За участие в конкурсах/играх (6)

Аватара пользователя
kwazar312
Заслуженный Корсар-Вип


Вернуться в Кино времён СССР



Uptime по данным Ping-Admin.Ru - сервиса мониторинга доступности сайтов
Рейтинг@Mail.ru Голосуйте за наш сайт в каталоге Rubo.Ru