logo
Международный русскоязычный
торрент-трекер
Menu

Doublon
Поделиться с друзьями: 
Голосуй за Корсар и получи 150 дублонов
Рейтинг торрент трекеров - UpTracker.ru

Добро пожаловать, или Посторонним вход воспрещен (1964, Детский, эксцентрическая комедия, семейный, BDRip 720p)

Сообщение Korsar » 06 янв 2017, 22:15

Название: Добро пожаловать, или Посторонним вход воспрещен
Год выхода: 1964
Жанр: Детский, эксцентрическая комедия, семейный
Режиссер: Элем Климов
В ролях: Евгений Евстигнеев, Арина Алейникова, Илья Рутберг, Лидия Смирнова, Алексей Смирнов (I), Нина Шацкая, Виктор Косых, Юрий Бондаренко, Лидия Волкова, Татьяна Барышева, Александр Машовец, Игорь Крюков, Сергей Кокорев, Вячеслав Царев, Людмира Смеян, Татьяна Прохорова, Екатерина Мазурова, Виктор Уральский, Сергей Шаппу, Александр Живеннов, Юрий Бондаренко, Виктор Маркин, Дая Смирнова

О фильме: Действие фильма разворачивается в пионерском лагере. Директор — формалист и зануда — делает все возможное, чтобы превратить подведомственную территорию в казарму. Но дети никак не хотят его понять и, проявив немалую выдумку и находчивость, в конце концов оставляют воспитателя в дураках.



Страна: СССР
Студия: Мосфильм
Продолжительность: 01:13:10
Перевод: Оригинал

Кодек: MPEG-4 AVC
Качество: BDRip 720p
Видео: 7800 Кбит/с, 988x720, 23.976 кадр/с
Звук: Русский (AC3, 6 ch, 448 Кбит/с)


Полное имя : Dobro.pozhalovat.ili.Postoronnim.vhod.vospreschen.1964.x264.BDRip.(720p)-MediaClub.mkv
Формат : Matroska
Версия формата : Version 4 / Version 2
Размер файла : 4,22 Гбайт
Продолжительность : 1 ч. 13 м.
Общий поток : 8250 Кбит/сек
Название фильма : = MediaClub = rip by Painter
Дата кодирования : UTC 2013-05-19 09:15:22
Программа кодирования : mkvmerge v6.1.0 ('Old Devil') built on Mar 2 2013 14:32:37
Библиотека кодирования : libebml v1.3.0 + libmatroska v1.4.0

Видео
Идентификатор : 1
Формат : AVC
Формат/Информация : Advanced Video Codec
Профиль формата : High@L4.1
Параметр CABAC формата : Да
Параметр ReFrames формата : 9 кадров
Идентификатор кодека : V_MPEG4/ISO/AVC
Продолжительность : 1 ч. 13 м.
Битрейт : 7800 Кбит/сек
Ширина : 988 пикселей
Высота : 720 пикселей
Соотношение сторон : 1,372
Режим частоты кадров : Постоянный
Частота кадров : 23,976 кадра/сек
Цветовое пространство : YUV
Субдискретизация насыщенности : 4:2:0
Битовая глубина : 8 бит
Тип развёртки : Прогрессивная
Бит/(Пиксели*Кадры) : 0.457
Размер потока : 3,90 Гбайт (93%)
Библиотека кодирования : x264 core 130 r2273 b3065e6
Настройки программы : cabac=1 / ref=9 / deblock=1:-2:-2 / analyse=0x3:0x133 / me=umh / subme=11 / psy=1 / psy_rd=1.00:0.20 / mixed_ref=1 / me_range=32 / chroma_me=1 / trellis=2 / 8x8dct=1 / cqm=0 / deadzone=21,11 / fast_pskip=0 / chroma_qp_offset=-3 / threads=6 / lookahead_threads=1 / sliced_threads=0 / nr=0 / decimate=0 / interlaced=0 / bluray_compat=0 / constrained_intra=0 / bframes=7 / b_pyramid=2 / b_adapt=2 / b_bias=0 / direct=3 / weightb=1 / open_gop=0 / weightp=2 / keyint=240 / keyint_min=23 / scenecut=40 / intra_refresh=0 / rc=2pass / mbtree=0 / bitrate=7800 / ratetol=1.0 / qcomp=0.60 / qpmin=0 / qpmax=69 / qpstep=4 / cplxblur=20.0 / qblur=0.5 / ip_ratio=1.40 / pb_ratio=1.30 / aq=1:1.00
Язык : Russian
Default : Да
Forced : Нет

Аудио
Идентификатор : 2
Формат : AC-3
Формат/Информация : Audio Coding 3
Расширение режима : CM (complete main)
Параметр Endianness формата : Big
Идентификатор кодека : A_AC3
Продолжительность : 1 ч. 13 м.
Вид битрейта : Постоянный
Битрейт : 448 Кбит/сек
Каналы : 6 каналов
Расположение каналов : Front: L C R, Side: L R, LFE
Частота : 48,0 КГц
Битовая глубина : 16 бит
Метод сжатия : С потерями
Размер потока : 234 Мбайт (5%)
Язык : Russian
Default : Да
Forced : Нет

Боцман
Аватара пользователя
Korsar
Помощник Администратора-Корсар
 
 

Награды: 28
За помощь проекту (1) За отличные раздачи и качество (12) За подробное оформление раздач (1) За отличные комментарии (1) Верный Сид (9) За участие в конкурсах (2)
  • Торрент
Для скачивания торрента необходимо зарегистрироваться или войти на трекер.

Вернуться в Кино времён СССР (HD Video)



Uptime по данным Ping-Admin.Ru - сервиса мониторинга доступности сайтов
Рейтинг@Mail.ru