logo
Международный русскоязычный
торрент-трекер
Menu
Поделиться с друзьями: 
Голосуй за Корсар и получи 500 дублонов
Рейтинг торрент трекеров - UpTracker.ru

Дни грома / Days of Thunder (1990, мелодрама, драма, спорт, UHD BDRemux 2160p)

Сообщение kisa1980 » 22 май 2020, 23:07

Название: Дни грома
Оригинальное название: Days of Thunder
Год выхода: 1990
Жанр: Мелодрама, драма, спорт
Режиссер: Тони Скотт
В ролях: Том Круз, Николь Кидман, Роберт Дювалл, Рэнди Куэйд, Кэри Элвес, Майкл Рукер, Фред Долтон Томпсон, Джон С. Райлли, Дж. К. Куин, Дон Симпсон, Кэролин Уильямс, Донна В. Скотт, Крис Эллис, Питер Эппел, Стивен Майкл Айерс, Майк Слэттери, Барбара Гэррик, Джералд Р. Молен, Таня Кольридж, Александра Белахойтис, Стив Бойд, Дэниэл Д. Гринвуд, Джим Гримшоу

О фильме: Гонщик Коул Трикл молод и мало кому известен, но он не боится скорости и на полном ходу может вписаться в самый крутой поворот. На гонках главным соперником Коула становится более опытный спортсмен Роуди Бернс. Но ни Коул, ни Роуди не доходят до финишной черты: происходит сильное столкновение, в результате которого соперники оказываются в одной больничной палате. Коул временно теряет зрение, и потому не может оценить красоту своего окулиста, Клер Левики. Зрение быстро возвращается, но Клер предупреждает Коула, что ему нельзя возвращаться в опасный спорт до полного выздоровления. Раздосадованные отстранением от участия в соревновании, Роуди и Коул устраивают зрелищную гонку на инвалидных колясках по больничным коридорам. Эти двое найдут в себе силы вернуться на настоящую трассу, и один из них возьмет главный приз.



Страна: США
Студия: Don Simpson-Jerry Bruckheimer Films, Paramount Pictures
Продолжительность: 01:47:17
Перевод: Профессиональный многоголосый, профессиональный двухголосый, профессиональный одноголосый, авторский

Качество: UHD BDRemux 2160p
Видео: HEVC, 62.9 Мбит/с, 3840x2160, 23.976 кадр/с
Аудио 01: Russian DTS-HD MA 5.1 / 48 kHz / 3166 kbps / Многоголосый, 1 Канал
Аудио 02: Russian Dolby Digital Audio 5.1 / 48 kHz / 640 kbps Многоголосый, Премьер Мультимедиа
Аудио 03: Russian Dolby Digital Audio 2.0 / 48 kHz / 192 kbps Многоголосый, СТС
Аудио 04: Russian Dolby Digital Audio 5.1 / 48 kHz / 640 kbps Двухголосый, Superbit
Аудио 05: Russian Dolby Digital Audio 2.0 / 48 kHz / 192 kbps Двухголосый, НТВ+
Аудио 06: Russian Dolby Digital Audio 2.0 / 48 kHz / 192 kbps Двухголосый, Премьер Видео Фильм
Аудио 07: Russian DTS-HD MA 5.1 / 48 kHz / 3759 kbps / Авторский, А.Гаврилов
Аудио 08: Russian DTS-HD MA 5.1 / 48 kHz / 3767 kbps / Авторский, Ю.Живов
Аудио 09: Russian DTS-HD MA 2.0 / 48 kHz / 3689 kbps / Авторский, Ю.Сербин
Аудио 10: Russian Dolby Digital Audio 2.0 / 48 kHz / 192 kbps Авторский, М.Хрусталев
Аудио 11: Russian Dolby Digital Audio 2.0 / 48 kHz / 192 kbps Авторский, В.Дохалов
Аудио 12: Ukrainian Dolby Digital Audio 5.1 / 48 kHz / 640 kbps Многоголосый, Iнтер
Аудио 13: English TrueHD 5.1 / 48 kHz / 4758 kbps / Original
Аудио 14: English DTS-HD MA 5.1 / 48 kHz / 3779 kbps / Original
Аудио 15: English Dolby Digital Audio 5.1 / 48 kHz / 640 kbps / Original
Субтитры: Русские, английские, украинские


Complete name : E:\Days.of.Thunder.1990.2160p.BluRay.REMUX.HEVC.DTS-HD.MA.TrueHD.5.1.SHD13.mkv
Format : Matroska
Format version : Version 4
File size : 66.0 GiB
Duration : 1 h 47 min
Overall bit rate mode : Variable
Overall bit rate : 88.0 Mb/s
Movie name : Days.of.Thunder.1990.2160p.BluRay.REMUX | Драма, Мелодрама, Спорт, | tnx-FGT
Encoded date : UTC 2020-05-22 14:55:12
Writing application : mkvmerge v38.0.0 ('The Silent Type') 64-bit
Writing library : libebml v1.3.9 + libmatroska v1.5.2
Attachments : poster.png

Video
ID : 1
Format : HEVC
Format/Info : High Efficiency Video Coding
Format profile : Main 10@L5.1@High
HDR format : SMPTE ST 2086, HDR10 compatible
Codec ID : V_MPEGH/ISO/HEVC
Duration : 1 h 47 min
Bit rate : 62.9 Mb/s
Width : 3 840 pixels
Height : 2 160 pixels
Display aspect ratio : 16:9
Frame rate mode : Constant
Frame rate : 23.976 (24000/1001) FPS
Color space : YUV
Chroma subsampling : 4:2:0 (Type 2)
Bit depth : 10 bits
Bits/(Pixel*Frame) : 0.316
Stream size : 47.1 GiB (71%)
Title : Days.of.Thunder.1990.2160p.BluRay.REMUX.HEVC.DTS-HD.MA.TrueHD.5.1.SHD13
Language : English
Default : Yes
Forced : No
Color range : Limited
Color primaries : BT.2020
Transfer characteristics : PQ
Matrix coefficients : BT.2020 non-constant
Mastering display color primaries : Display P3
Mastering display luminance : min: 0.0001 cd/m2, max: 1000 cd/m2

Audio #1
ID : 2
Format : DTS XLL
Format/Info : Digital Theater Systems
Commercial name : DTS-HD Master Audio
Codec ID : A_DTS
Duration : 1 h 47 min
Bit rate mode : Variable
Bit rate : 3 166 kb/s
Channel(s) : 6 channels
Channel layout : C L R Ls Rs LFE
Sampling rate : 48.0 kHz
Frame rate : 93.750 FPS (512 SPF)
Bit depth : 24 bits
Compression mode : Lossless
Delay relative to video : 7 ms
Stream size : 2.37 GiB (4%)
Title : MVO_1 Канал
Language : Russian
Default : Yes
Forced : No

Audio #2
ID : 3
Format : AC-3
Format/Info : Audio Coding 3
Commercial name : Dolby Digital
Codec ID : A_AC3
Duration : 1 h 47 min
Bit rate mode : Constant
Bit rate : 640 kb/s
Channel(s) : 6 channels
Channel layout : L R C LFE Ls Rs
Sampling rate : 48.0 kHz
Frame rate : 31.250 FPS (1536 SPF)
Compression mode : Lossy
Stream size : 491 MiB (1%)
Title : MVO_Премьер Мультимедиа
Language : Russian
Service kind : Complete Main
Default : No
Forced : No

Audio #3
ID : 4
Format : AC-3
Format/Info : Audio Coding 3
Commercial name : Dolby Digital
Codec ID : A_AC3
Duration : 1 h 47 min
Bit rate mode : Constant
Bit rate : 192 kb/s
Channel(s) : 2 channels
Channel layout : L R
Sampling rate : 48.0 kHz
Frame rate : 31.250 FPS (1536 SPF)
Compression mode : Lossy
Stream size : 147 MiB (0%)
Title : MVO_СТС
Language : Russian
Service kind : Complete Main
Default : No
Forced : No

Audio #4
ID : 5
Format : AC-3
Format/Info : Audio Coding 3
Commercial name : Dolby Digital
Codec ID : A_AC3
Duration : 1 h 47 min
Bit rate mode : Constant
Bit rate : 640 kb/s
Channel(s) : 6 channels
Channel layout : L R C LFE Ls Rs
Sampling rate : 48.0 kHz
Frame rate : 31.250 FPS (1536 SPF)
Compression mode : Lossy
Stream size : 491 MiB (1%)
Title : DVO_Superbit
Language : Russian
Service kind : Complete Main
Default : No
Forced : No

Audio #5
ID : 6
Format : AC-3
Format/Info : Audio Coding 3
Commercial name : Dolby Digital
Codec ID : A_AC3
Duration : 1 h 47 min
Bit rate mode : Constant
Bit rate : 192 kb/s
Channel(s) : 2 channels
Channel layout : L R
Sampling rate : 48.0 kHz
Frame rate : 31.250 FPS (1536 SPF)
Compression mode : Lossy
Stream size : 147 MiB (0%)
Title : DVO_НТВ+
Language : Russian
Service kind : Complete Main
Default : No
Forced : No

Audio #6
ID : 7
Format : AC-3
Format/Info : Audio Coding 3
Commercial name : Dolby Digital
Codec ID : A_AC3
Duration : 1 h 47 min
Bit rate mode : Constant
Bit rate : 192 kb/s
Channel(s) : 2 channels
Channel layout : L R
Sampling rate : 48.0 kHz
Frame rate : 31.250 FPS (1536 SPF)
Compression mode : Lossy
Stream size : 147 MiB (0%)
Title : DVO_Премьер Видео Фильм
Language : Russian
Service kind : Complete Main
Default : No
Forced : No

Audio #7
ID : 8
Format : DTS XLL
Format/Info : Digital Theater Systems
Commercial name : DTS-HD Master Audio
Codec ID : A_DTS
Duration : 1 h 47 min
Bit rate mode : Variable
Bit rate : 3 759 kb/s
Channel(s) : 6 channels
Channel layout : C L R Ls Rs LFE
Sampling rate : 48.0 kHz
Frame rate : 93.750 FPS (512 SPF)
Bit depth : 24 bits
Compression mode : Lossless
Delay relative to video : 7 ms
Stream size : 2.82 GiB (4%)
Title : AVO_А.Гаврилов
Language : Russian
Default : No
Forced : No

Audio #8
ID : 9
Format : DTS XLL
Format/Info : Digital Theater Systems
Commercial name : DTS-HD Master Audio
Codec ID : A_DTS
Duration : 1 h 47 min
Bit rate mode : Variable
Bit rate : 3 767 kb/s
Channel(s) : 6 channels
Channel layout : C L R Ls Rs LFE
Sampling rate : 48.0 kHz
Frame rate : 93.750 FPS (512 SPF)
Bit depth : 24 bits
Compression mode : Lossless
Delay relative to video : 7 ms
Stream size : 2.82 GiB (4%)
Title : AVO_Ю.Живов
Language : Russian
Default : No
Forced : No

Audio #9
ID : 10
Format : DTS XLL
Format/Info : Digital Theater Systems
Commercial name : DTS-HD Master Audio
Codec ID : A_DTS
Duration : 1 h 47 min
Bit rate mode : Variable
Bit rate : 3 689 kb/s
Channel(s) : 6 channels
Channel layout : C L R Ls Rs LFE
Sampling rate : 48.0 kHz
Frame rate : 93.750 FPS (512 SPF)
Bit depth : 24 bits
Compression mode : Lossless
Delay relative to video : 7 ms
Stream size : 2.76 GiB (4%)
Title : AVO_Ю.Сербин
Language : Russian
Default : No
Forced : No

Audio #10
ID : 11
Format : AC-3
Format/Info : Audio Coding 3
Commercial name : Dolby Digital
Codec ID : A_AC3
Duration : 1 h 47 min
Bit rate mode : Constant
Bit rate : 256 kb/s
Channel(s) : 2 channels
Channel layout : L R
Sampling rate : 48.0 kHz
Frame rate : 31.250 FPS (1536 SPF)
Compression mode : Lossy
Stream size : 196 MiB (0%)
Title : AVO_М.Хрусталев
Language : Russian
Service kind : Complete Main
Default : No
Forced : No

Audio #11
ID : 12
Format : AC-3
Format/Info : Audio Coding 3
Commercial name : Dolby Digital
Codec ID : A_AC3
Duration : 1 h 47 min
Bit rate mode : Constant
Bit rate : 192 kb/s
Channel(s) : 2 channels
Channel layout : L R
Sampling rate : 48.0 kHz
Frame rate : 31.250 FPS (1536 SPF)
Compression mode : Lossy
Stream size : 147 MiB (0%)
Title : AVO_В.Дохалов
Language : Russian
Service kind : Complete Main
Default : No
Forced : No

Audio #12
ID : 13
Format : AC-3
Format/Info : Audio Coding 3
Commercial name : Dolby Digital
Codec ID : A_AC3
Duration : 1 h 47 min
Bit rate mode : Constant
Bit rate : 640 kb/s
Channel(s) : 6 channels
Channel layout : L R C LFE Ls Rs
Sampling rate : 48.0 kHz
Frame rate : 31.250 FPS (1536 SPF)
Compression mode : Lossy
Stream size : 491 MiB (1%)
Title : MVO_Iнтер
Language : Ukrainian
Service kind : Complete Main
Default : No
Forced : No

Audio #13
ID : 14
Format : MLP FBA
Format/Info : Meridian Lossless Packing FBA
Commercial name : Dolby TrueHD
Codec ID : A_TRUEHD
Duration : 1 h 47 min
Bit rate mode : Variable
Bit rate : 3 334 kb/s
Maximum bit rate : 4 758 kb/s
Channel(s) : 6 channels
Channel layout : L R C LFE Ls Rs
Sampling rate : 48.0 kHz
Frame rate : 1 200.000 FPS (40 SPF)
Compression mode : Lossless
Stream size : 2.50 GiB (4%)
Title : Original
Language : English
Default : No
Forced : No

Audio #14
ID : 15
Format : DTS XLL
Format/Info : Digital Theater Systems
Commercial name : DTS-HD Master Audio
Codec ID : A_DTS
Duration : 1 h 47 min
Bit rate mode : Variable
Bit rate : 3 779 kb/s
Channel(s) : 6 channels
Channel layout : C L R Ls Rs LFE
Sampling rate : 48.0 kHz
Frame rate : 93.750 FPS (512 SPF)
Bit depth : 24 bits
Compression mode : Lossless
Stream size : 2.83 GiB (4%)
Title : Original
Language : English
Default : No
Forced : No

Audio #15
ID : 16
Format : AC-3
Format/Info : Audio Coding 3
Commercial name : Dolby Digital
Codec ID : A_AC3
Duration : 1 h 47 min
Bit rate mode : Constant
Bit rate : 640 kb/s
Channel(s) : 6 channels
Channel layout : L R C LFE Ls Rs
Sampling rate : 48.0 kHz
Frame rate : 31.250 FPS (1536 SPF)
Compression mode : Lossy
Stream size : 491 MiB (1%)
Title : Original
Language : English
Service kind : Complete Main
Default : No
Forced : No

Text #1
ID : 17
Format : UTF-8
Codec ID : S_TEXT/UTF8
Codec ID/Info : UTF-8 Plain Text
Duration : 1 h 42 min
Bit rate : 97 b/s
Count of elements : 1158
Stream size : 73.2 KiB (0%)
Language : Russian
Default : Yes
Forced : No

Text #2
ID : 18
Format : UTF-8
Codec ID : S_TEXT/UTF8
Codec ID/Info : UTF-8 Plain Text
Duration : 1 h 41 min
Bit rate : 96 b/s
Count of elements : 1157
Stream size : 71.4 KiB (0%)
Language : Ukrainian
Default : No
Forced : No

Text #3
ID : 19
Format : UTF-8
Codec ID : S_TEXT/UTF8
Codec ID/Info : UTF-8 Plain Text
Duration : 1 h 40 min
Bit rate : 64 b/s
Count of elements : 1217
Stream size : 47.9 KiB (0%)
Language : English
Default : No
Forced : No

Menu
00:00:00.000 : en:Chapter 01
00:03:39.260 : en:Chapter 02
00:05:36.878 : en:Chapter 03
00:12:51.812 : en:Chapter 04
00:14:36.041 : en:Chapter 05
00:18:27.564 : en:Chapter 06
00:24:49.779 : en:Chapter 07
00:31:40.815 : en:Chapter 08
00:36:25.975 : en:Chapter 09
00:41:13.471 : en:Chapter 10
00:45:05.369 : en:Chapter 11
00:51:03.185 : en:Chapter 12
00:53:32.584 : en:Chapter 13
00:56:15.413 : en:Chapter 14
01:01:38.444 : en:Chapter 15
01:04:12.723 : en:Chapter 16
01:11:31.954 : en:Chapter 17
01:15:22.434 : en:Chapter 18
01:20:36.957 : en:Chapter 19
01:27:29.244 : en:Chapter 20
01:33:12.670 : en:Chapter 21
01:38:40.164 : en:Chapter 22
01:43:11.018 : en:Chapter 23
КУБКИ

СТАЖ

МЕДАЛИ
Награды:115

За активную помощь проекту (12) Лучший по количеству кубков (4) За отличные раздачи и качество (43) За подробное оформление раздач (10) За отличные комментарии (10) Почётный форумчанин (3) Верный Сид (30) За участие в конкурсах/играх (2)

Аватара пользователя
Тортуга
kisa1980
Главный помощник Администратора-Корсар
  • Торрент
Для скачивания торрента необходимо зарегистрироваться или войти на трекер.

Вернуться в Фильмы 4К (UHD 4K)



Uptime по данным Ping-Admin.Ru - сервиса мониторинга доступности сайтов
Рейтинг@Mail.ru