logo
Международный русскоязычный
торрент-трекер
Menu

Doublon
Поделиться с друзьями: 
Голосуй за Корсар и получи 400 дублонов
Рейтинг торрент трекеров - UpTracker.ru

Для Чувств 2 / Forsenses II (2011, Документальный, релаксация, флора, фауна, BDRip 1080p)

Сообщение Korsar » 17 дек 2016, 15:12

Для чувств 2. Захватывающее путешествие в мир природы и звука / Forsenses II: Timber Lounge. A Fascinating Journey through Nature & Sound

Русское название: Для чувств 2. Захватывающее путешествие в мир природы и звука
Оригинальное название: Forsenses II: Timber Lounge. A Fascinating Journey through Nature & Sound
Год выпуска: 2011
Жанр: Документальный, релаксация, флора, фауна
Выпущено: Германия
Перевод: Не требуется - Музыкальное сопровождение

Сюжет фильма:
Великолепный документальный фильм с шикарным звуком: второй выпуск серии blu::elements с полным использованием оптических и акустических возможностей High Definition. Над фильмом и звуком проделана громадная работа режиссера и звукооператора. Название говорит само за себя и обеспечивает то, что обещает: невероятно увлекательное путешествие, которое зритель проделает с удовольствием. Впечатляющие образы природы находятся в гармонии с разнообразным и красивым звуком. Blu-Ray Forsenses II - Timber Lounge - увлекательное путешествие в природе, которое предлагает нам отдохнуть от повседневной жизни.

Качество: BDRip 1080p
Контейнер (Расширение): MKV
Видео: 1920x1080, 13365 Кбит/сек, 24 кадр/сек, 0,269 Бит/[Пиксели*Кадры]
Аудио №1: английский / AC3 / 5.1 / 48 kHz / 640 kbps / 16 bit
Аудио №2: английский / DTS / 5.1 / 48 kHz / 1510 kbps / 24 bit
Навигация по главам(Чаптеры): есть

Автор рипа: Сообщество:



Format : Matroska
Format version : Version 2
File size : 6.85 GiB
Duration : 1h 1mn
Overall bit rate : 15.8 Mbps
Movie name : Dlja chuvstv 2.(2011).BDRip.1080p.[denis100]
Encoded date : UTC 2016-04-16 08:11:55
Writing application : mkvmerge v5.8.0 ('No Sleep / Pillow') built on Sep 2 2012 15:37:04
Writing library : libebml v1.2.3 + libmatroska v1.3.0

Video
ID : 1
Format : AVC
Format/Info : Advanced Video Codec
Format profile : High@L4.1
Format settings, CABAC : Yes
Format settings, ReFrames : 4 frames
Codec ID : V_MPEG4/ISO/AVC
Duration : 1h 1mn
Bit rate : 13.4 Mbps
Width : 1 920 pixels
Height : 1 080 pixels
Display aspect ratio : 16:9
Frame rate : 24.000 fps
Color space : YUV
Chroma subsampling : 4:2:0
Bit depth : 8 bits
Scan type : Progressive
Bits/(Pixel*Frame) : 0.269
Stream size : 5.78 GiB (84%)
Title : Dlja chuvstv 2.(2011).BDRip.1080p.[denis100]
Writing library : x264 core 148 r2665 a01e339
Encoding settings : cabac=1 / ref=4 / deblock=1:-3:-3 / analyse=0x3:0x133 / me=umh / subme=11 / psy=1 / psy_rd=1.00:0.00 / mixed_ref=1 / me_range=32 / chroma_me=1 / trellis=2 / 8x8dct=1 / cqm=0 / deadzone=21,11 / fast_pskip=0 / chroma_qp_offset=-2 / threads=6 / lookahead_threads=1 / sliced_threads=0 / nr=0 / decimate=1 / interlaced=0 / bluray_compat=0 / constrained_intra=0 / bframes=12 / b_pyramid=2 / b_adapt=2 / b_bias=0 / direct=3 / weightb=1 / open_gop=0 / weightp=2 / keyint=250 / keyint_min=24 / scenecut=40 / intra_refresh=0 / rc=crf / mbtree=0 / crf=17.9 / qcomp=0.60 / qpmin=0 / qpmax=69 / qpstep=4 / ip_ratio=1.40 / pb_ratio=1.30 / aq=1:1.00
Language : English
Default : Yes
Forced : No

Audio #1
ID : 2
Format : AC-3
Format/Info : Audio Coding 3
Mode extension : CM (complete main)
Codec ID : A_AC3
Duration : 1h 1mn
Bit rate mode : Constant
Bit rate : 640 Kbps
Channel(s) : 6 channels
Channel positions : Front: L C R, Side: L R, LFE
Sampling rate : 48.0 KHz
Bit depth : 16 bits
Compression mode : Lossy
Stream size : 283 MiB (4%)
Language : English
Default : Yes
Forced : No

Audio #2
ID : 3
Format : DTS
Format/Info : Digital Theater Systems
Codec ID : A_DTS
Duration : 1h 1mn
Bit rate mode : Constant
Bit rate : 1 510 Kbps
Channel(s) : 6 channels
Channel positions : Front: L C R, Side: L R, LFE
Sampling rate : 48.0 KHz
Bit depth : 24 bits
Compression mode : Lossy
Stream size : 669 MiB (10%)
Language : English
Default : No
Forced : No

Menu
00:00:00.000 : en:Chapter 01
00:00:06.000 : en:Chapter 02
00:03:44.333 : en:Chapter 03
00:07:18.125 : en:Chapter 04
00:09:27.583 : en:Chapter 05
00:14:23.583 : en:Chapter 06
00:18:02.041 : en:Chapter 07
00:21:35.750 : en:Chapter 08
00:25:48.708 : en:Chapter 09
00:30:38.583 : en:Chapter 10
00:35:06.583 : en:Chapter 11
00:38:09.625 : en:Chapter 12
00:42:14.208 : en:Chapter 13
00:47:05.625 : en:Chapter 14
00:51:10.625 : en:Chapter 15
00:55:33.750 : en:Chapter 16
00:58:59.083 : en:Chapter 17

x264 [info]: frame I:470 Avg QP:15.19 size:243901
x264 [info]: frame P:21252 Avg QP:16.95 size:118415
x264 [info]: frame B:67434 Avg QP:19.20 size: 55175

Боцман
КУБКИ

СТАЖ

МЕДАЛИ
Награды:32

За помощь проекту (2) Лучший по количеству кубков (2) За отличные раздачи и качество (13) За подробное оформление раздач (1) За отличные комментарии (1) Верный Сид (11) За участие в конкурсах/играх (2)

Аватара пользователя
СССР
Korsar
Заслуженный Корсар-Вип+
  • Торрент
Для скачивания торрента необходимо зарегистрироваться или войти на трекер.

Вернуться в Документальные фильмы и телепередачи (HD Video)



Uptime по данным Ping-Admin.Ru - сервиса мониторинга доступности сайтов
Рейтинг@Mail.ru Голосуйте за наш сайт в каталоге Rubo.Ru