logo
Международный русскоязычный
торрент-трекер
Menu
Поделиться с друзьями: 
Голосуй за Корсар и получи 500 дублонов
Рейтинг торрент трекеров - UpTracker.ru

Динозавр / Сезон: 02 / Серии: 01-10 из 10 (2019, криминал, комедия, WEBRip 1080p)

Сообщение kisa1980 » 16 май 2020, 23:55

Название: Динозавр
Год выхода: 2019
Жанр: Криминал, комедия
Режиссер: Влад Николаев, Эдуард Малхасьян, Олег Компасов
В ролях: Андрей Смирнов, Александр Панкратов-Чёрный, Евгений Миллер, Анна Васильева, Галина Петрова, Валерий Баринов, Михаил Жигалов, Александр Олешко, Вольфганг Черни, Марина Соколова

О фильме: В центре сюжета нового сезона – «медвежатник» Семён Бабушкин по прозвищу Бриллиант и его верный друг Дмитрий Крылов, более известный как Басня. Бабушкин (Андрей Смирнов), купив загородный дом, занимается любимым делом – ловит рыбу. Ему предлагают стать консультантом СК, но он отказывается: одно дело спасать внучку и сына, а другое – работать на «систему». Но вот ему звонит Басня (Александр Панкратов-Чёрный) и говорит, что есть «заказ»: с помощью отмычек он открывает железную дверь со сложным замком. Бабушкин вновь взялся за старое? Нет! Вместе с Басней они окрыли свою фирму по вскрытию дверей, но спокойная жизнь им только снится, и герои попадают в новый круговорот приключений.



Страна: Россия
Студия: Студия «Небо»
Продолжительность: 10х~ 00:46:00
Перевод: Не требуется

Качество: WEBRip 1080p
Кодек: MPEG-4 AVC
Видео: 1920х1080 (16:9), 25 fps, AVC MPEG-4, ~ 6000 kbps
Звук: Русский: 48 kHz, AC3, 2 ch, 192 kbps avg
Субтитры: Нет

Релиз от:

General
Unique ID : 226041836410314184600240115032434267302 (0xAA0E12FB03EEF627B81DD957ECD9D4A6)
Complete name : D:\Dinozavr.S02.2019.WEB-DL.(1080p).ExKinoRay\Dinozavr.S02.E01.2019.WEB-DL.(1080p).ExKinoRay.mkv
Format : Matroska
Format version : Version 4 / Version 2
File size : 1.96 GiB
Duration : 45 min 36 s
Overall bit rate mode : Constant
Overall bit rate : 6 139 kb/s
Encoded date : UTC 2020-05-11 19:14:03
Writing application : mkvmerge v6.9.1 ('Blue Panther') 64bit built on Apr 18 2014 18:23:38
Writing library : libebml v1.3.0 + libmatroska v1.4.1

Video
ID : 1
Format : AVC
Format/Info : Advanced Video Codec
Format profile : High@L4.1
Format settings : 2 Ref Frames
Format settings, CABAC : No
Format settings, ReFrames : 2 frames
Codec ID : V_MPEG4/ISO/AVC
Duration : 45 min 36 s
Bit rate mode : Constant
Bit rate : 6 000 kb/s
Width : 1 920 pixels
Height : 1 080 pixels
Display aspect ratio : 16:9
Frame rate mode : Constant
Frame rate : 25.000 FPS
Standard : PAL
Color space : YUV
Chroma subsampling : 4:2:0
Bit depth : 8 bits
Scan type : Progressive
Bits/(Pixel*Frame) : 0.116
Stream size : 1.86 GiB (95%)
Default : Yes
Forced : No
Color range : Limited
Color primaries : BT.709
Transfer characteristics : BT.709
Matrix coefficients : BT.709

Audio
ID : 2
Format : AC-3
Format/Info : Audio Coding 3
Codec ID : A_AC3
Duration : 45 min 36 s
Bit rate mode : Constant
Bit rate : 192 kb/s
Channel(s) : 2 channels
Channel positions : Front: L R
Sampling rate : 48.0 kHz
Frame rate : 31.250 FPS (1536 SPF)
Bit depth : 16 bits
Compression mode : Lossy
Stream size : 62.6 MiB (3%)
Language : Russian
Service kind : Complete Main
Default : Yes
Forced : No
КУБКИ

СТАЖ

МЕДАЛИ
Награды:115

За активную помощь проекту (12) Лучший по количеству кубков (4) За отличные раздачи и качество (43) За подробное оформление раздач (10) За отличные комментарии (10) Почётный форумчанин (3) Верный Сид (30) За участие в конкурсах/играх (2)

Аватара пользователя
Тортуга
kisa1980
Главный помощник Администратора-Корсар
  • Торрент
Для скачивания торрента необходимо зарегистрироваться или войти на трекер.

Вернуться в Отечественные сериалы (HD Video)



Uptime по данным Ping-Admin.Ru - сервиса мониторинга доступности сайтов
Рейтинг@Mail.ru