logo
Международный русскоязычный
торрент-трекер
Menu

Doublon
Поделиться с друзьями: 
Голосуй за Корсар и получи 400 дублонов
Рейтинг торрент трекеров - UpTracker.ru

Динозавр / Серии: 01-10 из 10 (2018, комедия, триллер, детектив, HDTV 1080p)

Сообщение Gogen » 10 окт 2018, 19:13

Название: Динозавр
Год выпуска: 2018
Страна: Россия
Жанр: комедия, триллер, детектив
Перевод: Не требуется [Русский]
Продолжительность: 10 ~ 00:46:43
Режиссер: Евгений Серов , Всеволод Аравин , Олег Компасов
В ролях: Андрей Смирнов (криминальный авторитет Семен Тимофеевич Бабушкин), Илья Любимов (Бесовский), Ольга Тумайкина (Вера), Светлана Немоляева (Пуришкевич), Юрий Чурсин (Чёрный человек), Александр Панкратов-Черный (Басня), Инна Чурикова, Борис Комаров («слепой» нищий на вокзале), Вилен Бабичев (телохранитель Бесовского), Александр Берда (Кум), Михаил Мухин (начальник охраны), Александр Арефьев

Описание: Престарелый криминальный авторитет Семен Тимофеевич Бабушкин, о чьем воровском таланте в свое время слагали легенды, последние 35 лет герой не выходил из тюрьмы, предпочитая ее свободе, где у него не осталось ни друзей, ни родных.



Качество: HDTV 1080p
Формат: MKV
Видео: AVC, 1920x1080 (16:9), 7050 kbps, 25 fps, 0,136 bpp
Аудио: AC3 / 2.0 / 48 kHz / 192 kbps /

Релиз от:

General
Unique ID : 191413183050534761880463275639789277992 (0x9000D68DA3C228A88A719F987E1B5328)
Complete name : E:Запись с твDinozavr 2018.HDTV 1080p.R.G.GeneralfilmDinozavr.s01.e01.2018.HDTV 1080p.by.White Smoke.R.G.Generalfilm.mkv
Format : Matroska
Format version : Version 4 / Version 2
File size : 2.35 GiB
Duration : 46 min
Overall bit rate mode : Constant
Overall bit rate : 7 202 kb/s
Movie name : Dinozavr.s01.e01.2018.HDTV 1080p.by.White Smoke.R.G.Generalfilm.mkv
Encoded date : UTC 2018-10-09 10:23:33
Writing application : mkvmerge v6.8.0 ('Theme for Great Cities') 64bit built on Mar 2 2014 21:34:26
Writing library : libebml v1.3.0 + libmatroska v1.4.1
Cover : Yes
Attachments : COVER.jpg

Video
ID : 1
Format : AVC
Format/Info : Advanced Video Codec
Format profile : High@L4.1
Format settings, CABAC : Yes
Format settings, ReFrames : 3 frames
Format settings, GOP : M=3, N=33
Codec ID : V_MPEG4/ISO/AVC
Duration : 46 min
Bit rate mode : Constant
Bit rate : 7 051 kb/s
Width : 1 920 pixels
Height : 1 080 pixels
Display aspect ratio : 16:9
Frame rate mode : Constant
Frame rate : 25.000 FPS
Standard : PAL
Color space : YUV
Chroma subsampling : 4:2:0
Bit depth : 8 bits
Scan type : Progressive
Bits/(Pixel*Frame) : 0.136
Stream size : 2.24 GiB (95%)
Default : Yes
Forced : No
Color range : Limited
Color primaries : BT.709
Transfer characteristics : BT.709
Matrix coefficients : BT.709

Audio
ID : 2
Format : AC-3
Format/Info : Audio Coding 3
Mode extension : CM (complete main)
Format settings, Endianness : Big
Codec ID : A_AC3
Duration : 46 min
Bit rate mode : Constant
Bit rate : 192 kb/s
Channel(s) : 2 channels
Channel positions : Front: L R
Sampling rate : 48.0 kHz
Frame rate : 31.250 FPS (1536 spf)
Compression mode : Lossy
Stream size : 64.2 MiB (3%)
Default : Yes
Forced : No



Аватара пользователя
Gogen
Заслуженный Релизёр-Корсар
 
 

Награды: 41
Лучший по количеству кубков (14) За отличные раздачи и качество (20) За подробное оформление раздач (1) Верный Сид (2)
  • Торрент
Для скачивания торрента необходимо зарегистрироваться или войти на трекер.

Сообщение kisa1980 » 13 окт 2018, 23:44

Добавлены 9-10 серии. Финал сезона. :hi:
Аватара пользователя
kisa1980
Главный помощник Администратора-Корсар
 
 

Награды: 49
За помощь проекту (7) Лучший по количеству кубков (3) За отличные раздачи и качество (15) За подробное оформление раздач (4) За отличные комментарии (4) Почётный форумчанин (3) Верный Сид (9) За участие в конкурсах/играх (2)


Вернуться в Отечественные сериалы (HD Video)



Uptime по данным Ping-Admin.Ru - сервиса мониторинга доступности сайтов
Рейтинг@Mail.ru Голосуйте за наш сайт в каталоге Rubo.Ru
cron