logo
Международный русскоязычный
торрент-трекер
Menu
"Бунт на корабле", за скачанные торрент-файлы дублоны не снимаются. Возможность оплачена пользователем маклаут.
Doublon
Поделиться с друзьями: 
Голосуй за Корсар и получи 500 дублонов
Рейтинг торрент трекеров - UpTracker.ru

Дымовой сигнал / Smoke Signal (1955, Вестерн, боевик, драма, WEB-DL 1080p) - KORSAR

Сообщение MZMA » 01 окт 2018, 15:20

Название: Дымовой сигнал
Оригинальное название: Smoke Signal
Год выпуска: 1955
Выпущено: США, Universal International Pictures (UI or U-I)
Жанр: Вестерн, боевик, драма
Режиссер: Джерри Хоппер
В ролях: Дэна Эндрюс, Пайпер Лори, Рекс Ризон, Уильям Тэлман, Милбёрн Стоун, Дуглас Спенсер, Гордон Джонс, Уильям Шэллерт, Роберт Дж. Уилки, Уильям Фиппс, Пэт Хоган, Питер Коу, Ли Брэдли

О фильме: Капитан Харпер приезжает в форт, осажденный ютами. Очевидной причиной осады является желание ютов освободить армейского дезертира капитана Бретта Холлидея, который перешел на их сторону, и был арестован комендантом форта. Но Бретт рассказывает о себе совершенно другую историю. У небольшой группы выживших остается единственный шанс на спасение - отправиться на лодках вниз по дикой, неизведанной реке, где Харперу и Холлидею придется объеденить свои силы против бешеного течения и индейских стрел.



Продолжительность: 01:27:54
Перевод: Любительский
Субтитры: Английские
Навигация по главам: Есть

Качество: WEB-DL 1080p
Видео: MPEG-4 AVC, 12,6 Мбит/сек, 1440x1080, 23,976 кадра/сек
Аудио #1: AC3, 2 ch, 192 Кбит/сек | Русский, любительский (одноголосый закадровый) NezPerce
Аудио #2: EAC3, 2 ch, 224 Кбит/сек | Английский, оригинал

Сборка:


Общее
Уникальный идентификатор : 250077688691418322936628831642673414470 (0xBC2335FE06ECC52DB9B8805F41F30146)
Полное имя : Дымовой.сигнал.1955.WEB-DL.1080p.mkv
Формат : Matroska
Версия формата : Version 2
Размер файла : 8,12 Гбайт
Продолжительность : 1 ч. 27 м.
Общий поток : 13,2 Мбит/сек
Дата кодирования : UTC 2018-10-01 11:47:00
Программа кодирования : mkvmerge v5.8.0 ('No Sleep / Pillow') built on Sep 2 2012 15:37:04
Библиотека кодирования : libebml v1.2.3 + libmatroska v1.3.0

Видео
Идентификатор : 1
Формат : AVC
Формат/Информация : Advanced Video Codec
Профиль формата : High@L4
Настройки формата : CABAC / 4 Ref Frames
Параметр CABAC формата : Да
Параметр RefFrames формата : 4 кадра
Идентификатор кодека : V_MPEG4/ISO/AVC
Продолжительность : 1 ч. 27 м.
Битрейт : 12,6 Мбит/сек
Ширина : 1440 пикселей
Высота : 1080 пикселей
Соотношение сторон : 4:3
Режим частоты кадров : Постоянный
Частота кадров : 23,976 (24000/1001) кадра/сек
Цветовое пространство : YUV
Субдискретизация насыщенности : 4:2:0
Битовая глубина : 8 бит
Тип развёртки : Прогрессивная
Бит/(Пиксели*Кадры) : 0.337
Размер потока : 7,71 Гбайт (95%)
Язык : English
По умолчанию : Да
Принудительно : Нет
Цветовой диапазон : Limited
Основные цвета : BT.709
Характеристики трансфера : BT.709
Коэффициенты матрицы : BT.709

Аудио #1
Идентификатор : 2
Формат : AC-3
Формат/Информация : Audio Coding 3
Идентификатор кодека : A_AC3
Продолжительность : 1 ч. 27 м.
Вид битрейта : Постоянный
Битрейт : 192 Кбит/сек
Каналы : 2 канала
Расположение каналов : Front: L R
Частота : 48,0 КГц
Частота кадров : 31,250 кадров/сек (1536 SPF)
Битовая глубина : 16 бит
Метод сжатия : С потерями
Размер потока : 121 Мбайт (1%)
Заголовок : VO | NezPerce
Язык : Russian
По умолчанию : Да
Принудительно : Нет

Аудио #2
Идентификатор : 3
Формат : E-AC-3
Формат/Информация : Enhanced Audio Coding 3
Идентификатор кодека : A_EAC3
Продолжительность : 1 ч. 27 м.
Вид битрейта : Постоянный
Битрейт : 224 Кбит/сек
Каналы : 2 канала
Расположение каналов : Front: L R
Частота : 48,0 КГц
Частота кадров : 187,500 кадров/сек (256 SPF)
Метод сжатия : С потерями
Размер потока : 141 Мбайт (2%)
Заголовок : Original
Язык : English
По умолчанию : Нет
Принудительно : Нет

Текст #1
Идентификатор : 4
Формат : UTF-8
Идентификатор кодека : S_TEXT/UTF8
Идентификатор кодека/Информация : UTF-8 Plain Text
Язык : English
По умолчанию : Нет
Принудительно : Нет

Текст #2
Идентификатор : 5
Формат : UTF-8
Идентификатор кодека : S_TEXT/UTF8
Идентификатор кодека/Информация : UTF-8 Plain Text
Заголовок : SDH
Язык : English
По умолчанию : Нет
Принудительно : Нет

Меню
00:00:00.000 : en:Chapter 1
00:11:15.475 : en:Chapter 2
00:20:43.919 : en:Chapter 3
00:31:16.299 : en:Chapter 4
00:44:11.415 : en:Chapter 5
00:52:54.855 : en:Chapter 6
01:02:21.071 : en:Chapter 7
01:14:30.488 : en:Chapter 8

• Исходник видео WEB-DL Amazon.
Просьба отключить блокировщики рекламы на странице скриншотов по адресу: http://3.lostpic.net/, этим Вы поможете существованию проекта. Заранее спасибо!
При скачивании раздач данного релизёра, дублоны не снимаются, а за сидирование установлен максимальный коэффициент. Просьба ко всем, поддержать сидированием раздачи Леонида и сохранить о нём память!
КУБКИ

СТАЖ

МЕДАЛИ
Награды:122

За активную помощь проекту (4) Лучший по количеству кубков (17) За отличные раздачи и качество (58) За подробное оформление раздач (11) За отличные комментарии (5) Почётный форумчанин (1) Верный Сид (26)

Аватара пользователя
СССР
MZMA
Заслуженный Корсар-Вип+
Раздачи группы KORSAR разрешено перезаливать спустя 7 дней после публикации и с обязательным добавлением банера
  • Торрент
Для скачивания торрента необходимо зарегистрироваться или войти на трекер.

Сообщение IKGapirov » 21 сен 2019, 07:27

Добрый день!
Пожалуйста может кто встать на раздачу? :(
СТАЖ

МЕДАЛИ


Аватара пользователя
IKGapirov
Корсар


Вернуться в Классика зарубежного кино (фильмы до 1980 года / HD Video)



Uptime по данным Ping-Admin.Ru - сервиса мониторинга доступности сайтов
Рейтинг@Mail.ru