logo
Международный русскоязычный
торрент-трекер
Menu
Doublon
Поделиться с друзьями: 
Голосуй за Корсар и получи 500 дублонов
Рейтинг торрент трекеров - UpTracker.ru

Дылды / Серии: 01-13 из 21 (2019, комедия, WEB-DL 1080p)

Непрочитанное сообщение kisa1980 » 09 окт 2019, 14:16

Название: Дылды
Год выпуска: 2019
Жанр: Комедия
Режиссёр: Сергей Сенцов
В ролях: Павел Деревянко, Анна Невская, Дарья Урсуляк, Татьяна Орлова, Павел Майков, Анна Антонова, Сергей Рубеко, Ангелина Поплавская, Изабель Эйдлен, Евгения Тремасова, Юлия Макарова (II), Дмитрий Караневский, Степан Девонин, Анатолий Горячев, Марина Коваленко, Александр Андриенко, Николай Лунин, Дарья Пицик, Надежда Карпова, Маша Тухарь

Описание: Успешный тренер, сексист и бабник Михаил Ковалёв теряет работу из-за скандального характера и неуважительного отношения к женщинам. Чтобы вернуться в Суперлигу, ему предстоит выиграть чемпионат с провинциальной студенческой женской командой. Помешать ему в этом постараются проректор-перфекционист Ирина и затаившая обиду экс-девушка Наталья.



Производство: Россия, Арт Пикчерс Вижн
Продолжительность: 13х ~ 00:25:00
Перевод: Не требуется

Качество: WEB-DL 1080p
Формат: MKV
Видео: MPEG4 AVC Video, 16:9, 1920x1080, 25 fps, ~5000 kbps
Аудио: AC3 Dolby Digital, 48.0 kHz, 2/0 (L,R) ch, 192 kbps
Субтитры: Нет

Релиз от:


General
Unique ID : 242169629320904286174638376573119249838 (0xB6302C900CCD4244983A43D2AE6C3DAE)
Complete name : G:Dyldy.2019.WEB-DL.(1080p).ExKinoRayDyldy.s01.(01.seriya).2019.WEB-DL.(1080p).ExKinoRay.mkv
Format : Matroska
Format version : Version 4 / Version 2
File size : 963 MiB
Duration : 26 min 3 s
Overall bit rate mode : Variable
Overall bit rate : 5 169 kb/s
Encoded date : UTC 2019-09-26 16:41:14
Writing application : mkvmerge v6.9.1 ('Blue Panther') 64bit built on Apr 18 2014 18:23:38
Writing library : libebml v1.3.0 + libmatroska v1.4.1

Video
ID : 1
Format : AVC
Format/Info : Advanced Video Codec
Format profile : High@L4.1
Format settings : CABAC / 5 Ref Frames
Format settings, CABAC : Yes
Format settings, RefFrames : 5 frames
Format settings, GOP : M=4, N=50
Codec ID : V_MPEG4/ISO/AVC
Duration : 26 min 3 s
Bit rate mode : Variable
Bit rate : 4 874 kb/s
Maximum bit rate : 40.0 Mb/s
Width : 1 920 pixels
Height : 1 080 pixels
Display aspect ratio : 16:9
Frame rate mode : Constant
Frame rate : 25.000 FPS
Color space : YUV
Chroma subsampling : 4:2:0
Bit depth : 8 bits
Scan type : Progressive
Bits/(Pixel*Frame) : 0.094
Stream size : 908 MiB (94%)
Default : Yes
Forced : No
Color range : Limited
Color primaries : BT.709
Transfer characteristics : BT.709
Matrix coefficients : BT.709

Audio
ID : 2
Format : AC-3
Format/Info : Audio Coding 3
Codec ID : A_AC3
Duration : 26 min 3 s
Bit rate mode : Constant
Bit rate : 192 kb/s
Channel(s) : 2 channels
Channel positions : Front: L R
Sampling rate : 48.0 kHz
Frame rate : 31.250 FPS (1536 SPF)
Bit depth : 16 bits
Compression mode : Lossy
Stream size : 35.8 MiB (4%)
Language : Russian
Default : Yes
Forced : No
КУБКИ

СТАЖ

МЕДАЛИ
Награды:101

За помощь проекту (9) Лучший по количеству кубков (3) За отличные раздачи и качество (36) За подробное оформление раздач (5) За отличные комментарии (9) Почётный форумчанин (8) Верный Сид (27) За участие в конкурсах/играх (2)

Аватара пользователя
Тортуга
kisa1980
Главный помощник Администратора-Корсар
  • Торрент
Для скачивания торрента необходимо зарегистрироваться или войти на трекер.

Непрочитанное сообщение karina » 15 окт 2019, 20:00

Спасибо за раздачу! Очень хотелось посмотреть! #7
КУБКИ

МЕДАЛИ
Награды:5



Аватара пользователя
Argentina
karina
Релизёр-Корсар


Вернуться в Отечественные сериалы (HD Video)



Uptime по данным Ping-Admin.Ru - сервиса мониторинга доступности сайтов
Рейтинг@Mail.ru