logo
Международный русскоязычный
торрент-трекер
Menu

Doublon
Поделиться с друзьями: 
Голосуй за Корсар и получи 400 дублонов
Рейтинг торрент трекеров - UpTracker.ru

Дикая природа Японии / Japan's Wild Secrets (2010, документальный, BDRip 720p)

Сообщение _denis_100 » 01 апр 2018, 19:47

Русское название: Дикая природа Японии
Оригинальное название: Japan's Wild Secrets
Год выпуска: 2010
Жанр: документальный
Выпущено: Германия
Режиссер: Йенс Вестфален, Торальф Гроспитц
Перевод: Авторский одноголосый

Сюжет фильма: Этот документальный фильм с живописными пейзажами, отснятый в HD-качестве, описывает дикую природу Японии, с ее захватывающими дух ландшафтами и населяющими ее редкими животными. Этот фильм - сенсационная поездка по Дикой Японии - островному государству, полному противоположностей. Крайне редко где можно встретить такое многообразие и различия флоры и фауны в пределах одной страны. Фильм расскажет как о мегаполисах, таких как Токио, с одной стороны и отдаленных горных долинах, с древнейшими историческими традициями, с другой. Фильм состоит из двух частей: "Снежные обезьяны и вулканы" и "Тропическое побережье и страна медведей".



Качество: BDRip 720p
Формат: AVC (библиотека кодирования x.264)
Контейнер (Расширение): MKV
Видео: 1280x718, 7800 Кбит/сек, 25 кадр/сек, 0,339 Бит/[Пиксели*Кадры]
Аудио: русский / AC3 / 5.1 / 48 kHz / 640 kbps / |Авторский одноголосый, Ю. Сербин|
Продолжительность: 2 х ~ 00:43:20

Автор рипа: Группа:


Episode 1: Schneeaffen und Vulkane / Снежные обезьяны и вулканы
Episode 2: Tropenstrand und Bärenland / Тропическое побережье и страна медведей



Format : Matroska
Format version : Version 2
File size : 2.56 GiB
Duration : 43 min
Overall bit rate : 8 440 kb/s
Movie name : Wildes.Japan.Ep1.(2010).BDRip.720p.[denis100]
Encoded date : UTC 2018-04-01 16:08:47
Writing application : mkvmerge v5.8.0 ('No Sleep / Pillow') built on Sep 2 2012 15:37:04
Writing library : libebml v1.2.3 + libmatroska v1.3.0

Video
ID : 1
Format : AVC
Format/Info : Advanced Video Codec
Format profile : High@L4.1
Format settings, CABAC : Yes
Format settings, ReFrames : 9 frames
Codec ID : V_MPEG4/ISO/AVC
Duration : 43 min
Bit rate : 7 800 kb/s
Width : 1 280 pixels
Height : 718 pixels
Display aspect ratio : 16:9
Frame rate mode : Constant
Frame rate : 25.000 FPS
Color space : YUV
Chroma subsampling : 4:2:0
Bit depth : 8 bits
Scan type : Progressive
Bits/(Pixel*Frame) : 0.339
Stream size : 2.31 GiB (90%)
Title : Wildes.Japan.Ep1.(2010).BDRip.720p.[denis100]
Writing library : x264 core 152 r2851 ba24899
Encoding settings : cabac=1 / ref=9 / deblock=1:-3:-3 / analyse=0x3:0x133 / me=umh / subme=11 / psy=1 / psy_rd=1.00:0.15 / mixed_ref=1 / me_range=32 / chroma_me=1 / trellis=2 / 8x8dct=1 / cqm=0 / deadzone=21,11 / fast_pskip=0 / chroma_qp_offset=-3 / threads=6 / lookahead_threads=1 / sliced_threads=0 / nr=0 / decimate=1 / interlaced=0 / bluray_compat=0 / constrained_intra=0 / bframes=10 / b_pyramid=2 / b_adapt=2 / b_bias=0 / direct=3 / weightb=1 / open_gop=0 / weightp=2 / keyint=250 / keyint_min=25 / scenecut=40 / intra_refresh=0 / rc=2pass / mbtree=0 / bitrate=7800 / ratetol=1.0 / qcomp=0.60 / qpmin=0 / qpmax=69 / qpstep=4 / cplxblur=20.0 / qblur=0.5 / ip_ratio=1.40 / pb_ratio=1.30 / aq=1:0.75
Language : English
Default : Yes
Forced : No

Audio
ID : 2
Format : AC-3
Format/Info : Audio Coding 3
Mode extension : CM (complete main)
Format settings, Endianness : Big
Codec ID : A_AC3
Duration : 43 min
Bit rate mode : Constant
Bit rate : 640 kb/s
Channel(s) : 6 channels
Channel positions : Front: L C R, Side: L R, LFE
Sampling rate : 48.0 kHz
Frame rate : 31.250 FPS (1536 spf)
Compression mode : Lossy
Stream size : 198 MiB (8%)
Title : AVO, Ю.Сербин
Language : Russian
Default : Yes
Forced : No


КУБКИ

СТАЖ

МЕДАЛИ
Награды:20

Лучший по количеству кубков (1) За отличные раздачи и качество (13) За подробное оформление раздач (1) Верный Сид (1)

Аватара пользователя
_denis_100
Опытный Релизёр-Корсар
  • Торрент
Для скачивания торрента необходимо зарегистрироваться или войти на трекер.

Вернуться в Флора и фауна (HD Video)



Uptime по данным Ping-Admin.Ru - сервиса мониторинга доступности сайтов
Рейтинг@Mail.ru Голосуйте за наш сайт в каталоге Rubo.Ru