logo
Международный русскоязычный
торрент-трекер
Menu
Поделиться с друзьями: 
Голосуй за Корсар и получи 500 дублонов
Рейтинг торрент трекеров - UpTracker.ru

Дикари (2006, трагикомедия, DVDRip-AVC) - KORSAR

Сообщение filbi1976 » 04 июл 2017, 09:52

Название: Дикари
Год выхода: 2006
Жанр: драма, мелодрама, комедия
Режиссер: Виктор Шамиров
В ролях: Гоша Куценко, Марат Башаров, Константин Юшкевич, Эвклид Кюрдзидис, Тихон Жизневский, Анна Небогатова, Владислав Галкин, Алексей Горбунов, Ирина Новак, Александр Гришае

Описание: Море, август Интересы людей просты: позагорать, поплавать, поиграть в волейбол, баскетбол, выпить, потанцевать вечером, найти партнера ночью Многие вышли из студенческого возраста, могут позволить себе более комфортабельный отдых, но кончается июль, они кидают в багажник солидного автомобиля старую палатку и едут сюда.Здесь не говорят о работе, здесь не важно, сколько у тебя денег Множество человеческих историй, ценных, смешных и грустных. Внимание переходит от одного героя к другому, затем к третьему, возвращается к первому и цепляет на исходе эпизода четвертого, который был главный в предыдущем эпизоде. Рассказ строится скорее как музыка, чем как конструкция. И ритм, настроение повествования задает именно место действия.

Выпущено: Россия
Продолжительность: 01:47:46

#7#7

Файл
Кодек: х264
Качество: DVDRip-AVC
Видео: MPEG-4 AVC, 720x552@1024x552, 25 fps, 2048 Кбит/с
Звук: AC3, 6 ch, 448 Кбит/с


  • x264 [info]: frame I:866 Avg QP:17.43 size: 66099
  • x264 [info]: frame P:37929 Avg QP:19.30 size: 24015
  • x264 [info]: frame B:122871 Avg QP:22.02 size: 5595
Общее
Уникальный идентификатор : 173965610126965073198252579521368638766 (0x82E08ECAE9D029F08E90608510AF452E)
Полное имя : D:\Дикари_2006-DVDRip-AVC.mkv
Формат : Matroska
Версия формата : Version 2
Размер файла : 1,88 Гбайт
Продолжительность : 1 ч. 47 м.
Общий поток : 2498 Кбит/сек
Дата кодирования : UTC 2017-07-04 07:52:00
Программа кодирования : mkvmerge v5.8.0 ('No Sleep / Pillow') built on Sep 2 2012 15:37:04
Библиотека кодирования : libebml v1.2.3 + libmatroska v1.3.0

Видео
Идентификатор : 1
Формат : AVC
Формат/Информация : Advanced Video Codec
Профиль формата : High@L4.1
Параметр CABAC формата : Да
Параметр ReFrames формата : 16 кадров
Идентификатор кодека : V_MPEG4/ISO/AVC
Продолжительность : 1 ч. 47 м.
Битрейт : 2000 Кбит/сек
Ширина : 720 пикселей
Высота : 552 пикселя
Соотношение сторон : 1,85:1
Режим частоты кадров : Постоянный
Частота кадров : 25,000 кадров/сек
Цветовое пространство : YUV
Субдискретизация насыщенности : 4:2:0
Битовая глубина : 8 бит
Тип развёртки : Прогрессивная
Бит/(Пиксели*Кадры) : 0.201
Размер потока : 1,51 Гбайт (80%)
Заголовок : korsar.tv
Библиотека кодирования : x264 core 148 r2744kMod b97ae06
Настройки программы : cabac=1 / ref=16 / deblock=1:-2:-1 / analyse=0x3:0x133 / me=umh / subme=10 / psy=1 / fade_compensate=0.00 / psy_rd=1.05:0.10 / mixed_ref=1 / me_range=32 / chroma_me=1 / trellis=2 / 8x8dct=1 / cqm=0 / deadzone=21,11 / fast_pskip=1 / chroma_qp_offset=-3 / threads=12 / lookahead_threads=3 / sliced_threads=0 / nr=0 / decimate=1 / interlaced=0 / bluray_compat=0 / constrained_intra=0 / bframes=16 / b_pyramid=2 / b_adapt=2 / b_bias=0 / direct=1 / weightb=1 / open_gop=0 / weightp=2 / keyint=250 / keyint_min=25 / scenecut=40 / intra_refresh=0 / rc=crf / mbtree=0 / crf=18.0000 / qcomp=0.63 / qpmin=0 / qpmax=39 / qpstep=4 / ip_ratio=1.40 / pb_ratio=1.30 / aq=2:1.00
Язык : English
Default : Да
Forced : Нет
Цветовой диапазон : Limited
Основные цвета : BT.601 PAL
Характеристики трансфера : BT.470 System B, BT.470 System G
Коэффициенты матрицы : BT.601

Аудио
Идентификатор : 2
Формат : AC-3
Формат/Информация : Audio Coding 3
Параметр Endianness формата : Big
Идентификатор кодека : A_AC3
Продолжительность : 1 ч. 47 м.
Вид битрейта : Постоянный
Битрейт : 448 Кбит/сек
Каналы : 6 каналов
Расположение каналов : Front: L C R, Side: L R, LFE
Частота : 48,0 КГц
Частота кадров : 31,250 кадров/сек (1536 spf)
Битовая глубина : 16 бит
Метод сжатия : С потерями
Размер потока : 345 Мбайт (18%)
Язык : Russian
ServiceKind/String : Complete Main
Default : Да
Forced : Нет

Просьба отключить блокировщики рекламы на странице скриншотов по адресу: http://3.lostpic.net/, этим Вы поможете существованию проекта. Заранее спасибо!
The Show Must Go On
Посмотреть товар в профиле пользователя

Нажмите на изображение, чтобы увидеть в полный размер  
1 шт.
Нажмите на изображение, чтобы увидеть в полный размер  
1 шт.
Нажмите на изображение, чтобы увидеть в полный размер  
1 шт.
Нажмите на изображение, чтобы увидеть в полный размер  
1 шт.
Нажмите на изображение, чтобы увидеть в полный размер  
1 шт.
Нажмите на изображение, чтобы увидеть в полный размер  
1 шт.
Нажмите на изображение, чтобы увидеть в полный размер  
1 шт.
Нажмите на изображение, чтобы увидеть в полный размер  
1 шт.
Нажмите на изображение, чтобы увидеть в полный размер  
1 шт.
Нажмите на изображение, чтобы увидеть в полный размер  
1 шт.
Нажмите на изображение, чтобы увидеть в полный размер  
1 шт.
Нажмите на изображение, чтобы увидеть в полный размер  
1 шт.
Нажмите на изображение, чтобы увидеть в полный размер  
1 шт.
Нажмите на изображение, чтобы увидеть в полный размер  
1 шт.
Нажмите на изображение, чтобы увидеть в полный размер  
1 шт.
КУБКИ

СТАЖ

МЕДАЛИ
Награды:174

За активную помощь проекту (5) Лучший по количеству кубков (1) За отличные раздачи и качество (114) За подробное оформление раздач (4) За отличные комментарии (8) Почётный форумчанин (3) Верный Сид (35) За участие в конкурсах/играх (2) 3 место в конкурсах/играх (1)

Аватара пользователя
Тортуга
filbi1976
Администратор-Корсар
Раздачи группы KORSAR доступны тем кто раздал не менее 15 гиг, а перезаливать разрешено только спустя 14 дней после публикации и с обязательным добавлением банера!!!
  • Торрент
Для скачивания торрента необходимо зарегистрироваться или войти на трекер.

Сообщение verybigpapa » 04 июл 2017, 11:08

Уважаемый filbi1976, огромное спасибо за выполненную просьбу. :hi: :respect: Посмотрел фильм и, как будто, вернулся в студенческую юность. Кайф! Ностальжи! :super:
Последний раз редактировалось verybigpapa 30 ноя 2017, 21:16, всего редактировалось 1 раз.
Улыбайтесь, господа! Улыбайтесь!
КУБКИ

СТАЖ

МЕДАЛИ
Награды:69

Пожизненный VIP+ (1) За активную помощь проекту (27) Лучший по количеству кубков (9) За отличные раздачи и качество (1) За отличные комментарии (12) Почётный форумчанин (1) Верный Сид (18)

Аватара пользователя
СССР
verybigpapa
Заслуженный Корсар-VIP+

Сообщение bagrad » 04 июл 2017, 13:01

Спасибо Сергей! :hi:
Dum spíro, spéro!
КУБКИ

СТАЖ

МЕДАЛИ
Награды:32

Пожизненный VIP+ (1) За активную помощь проекту (4) Лучший по количеству кубков (9) За отличные раздачи и качество (1) За отличные комментарии (8) Почётный форумчанин (2) Верный Сид (7)

Аватара пользователя
СССР
bagrad
Заслуженный Корсар-VIP+

Сообщение Sanechek » 04 июл 2017, 17:33

Сергей, благодарю! :10 balov: :good: :respect:
КУБКИ

СТАЖ

МЕДАЛИ
Награды:71

Пожизненный VIP+ (1) За активную помощь проекту (4) Лучший по количеству кубков (9) За отличные раздачи и качество (24) За подробное оформление раздач (2) За отличные комментарии (7) Почётный форумчанин (1) Верный Сид (22)

Аватара пользователя
СССР
Sanechek
Главный Модератор-Корсар

Сообщение mister.hats » 04 июл 2017, 18:35

Спасибо Серега :-good:
КУБКИ

СТАЖ

МЕДАЛИ
Награды:124

Пожизненный VIP+ (1) За активную помощь проекту (9) Лучший по количеству кубков (42) За отличные раздачи и качество (40) За подробное оформление раздач (2) За отличные комментарии (8) Почётный форумчанин (2) Верный Сид (20)

Аватара пользователя
Тортуга
mister.hats
Заслуженный Корсар-VIP+

Сообщение Darkmore » 30 ноя 2017, 18:44

Самое время вспомнить лето, спасибо большое! :hi:
КУБКИ

СТАЖ

МЕДАЛИ
Награды:14

За отличные комментарии (14)

Аватара пользователя
СССР
Darkmore
Опытный Корсар

Сообщение Gobrya » 28 дек 2019, 23:41

Спасибо большое! :senks2:
КУБКИ

СТАЖ

МЕДАЛИ
Награды:4

За помощь проекту в 200 рублей (1) За помощь проекту в 300 рублей (1) Почётный форумчанин (1) Верный Сид (1)

Аватара пользователя
Russia
Gobrya
Опытный Корсар

Сообщение Yorker » 29 дек 2019, 10:29

Шамиров классный. Жаль этого фильма в HD нет
КУБКИ

СТАЖ

МЕДАЛИ
Награды:42

Пожизненный VIP+ (1) За активную помощь проекту (5) Лучший по количеству кубков (6) За отличные раздачи и качество (3) Почётный форумчанин (1) Верный Сид (26)

Аватара пользователя
Yorker
Заслуженный Корсар-VIP+


Вернуться в Наше современное кино



Рейтинг@Mail.ru