logo
Международный русскоязычный
торрент-трекер
Menu
Поделиться с друзьями: 
Голосуй за Корсар и получи 500 дублонов
Рейтинг торрент трекеров - UpTracker.ru

Девять ярдов / The Whole Nine Yards (2000, комедия, криминал, BDRip-AVC) - ExKinoRay

Сообщение sany771 » 01 авг 2020, 10:03

Название: Девять ярдов
Оригинальное название: The Whole Nine Yards
Год выпуска: 2000
Жанр: Комедия, криминал
Режиссер: Джонатан Линн
В ролях: Брюс Уиллис, Мэттью Перри, Розанна Аркетт, Майкл Кларк Дункан, Наташа Хенстридж, Аманда Пит, Кевин Поллак, Харленд Уильямс, Кармен Ферланд, Серж Кристианссенс, Рени Мадлен Ле Геррье, Жан-Ги Бушар, Ховард Билерман, Джонни Гоар, Диано Клаве, Стефани Биддл, Гари Голд, Роберт Барнс, Чарльз Биддл-ст., Франс Арбур, Шон Дивайн, Ричард Джутрас, Марк Камачо, Джоэнна Нойес, Джон Санфорд Мур

О фильме: Несчастливый в браке канадский дантист Ник Озерански внезапно узнает, что по соседству поселился наемный убийца Джимми Тудески по прозвищу Тюльпан, сдавший полиции своих мафиозных боссов в обмен на освобождение из-под стражи. Жена уговорила Ника съездить в Чикаго и известить мафию, где живет Тюльпан, за голову которого обещана награда. Но Джимми такой поворот событий совершенно не устраивает...



Страна: США
Студия: Warner Bros., Franchise Pictures, Lansdown Films, Morgan Creek Productions
Продолжительность: 01:38:48
Перевод: Дублированный, профессиональный многоголосый, авторский

Формат: MKV
Качество: BDRip-AVC
Видео: MPEG-4 AVC, 1024x552, - 2119 Кбит/с
Аудио #1: AC3, 6 ch, 448 Кбит/сек | RUS | Дубляж
Аудио #2: AC3, 6 ch, 448 Кбит/сек | RUS | Многоголосый, R5
Аудио #3: AC3, 2 ch, 192 Кбит/сек | RUS | Многоголосый, PTP
Аудио #4: AC3, 6 ch, 448 Кбит/сек | RUS | Авторский, Сергей Визгунов
Аудио #5: AC3, 6 ch, 448 Кбит/сек | RUS | Авторский, Андрей Гаврилов
Аудио #5: AC3, 6 ch, 448 Кбит/сек | ENG | Оригинал
Субтитры: Русские, английские


x264 [info]: frame I:1258 Avg QP:16.98 size: 54510
x264 [info]: frame P:32236 Avg QP:18.64 size: 24237
x264 [info]: frame B:108637 Avg QP:19.82 size: 6677

Общее
Уникальный идентификатор : 316577791974569424670294238382821605305 (0xEE2AAA38CC814E2B369A5E242915FFB9)
Полное имя : D:MOVIESThe.Whole.Nine.Yards.2000.BDRip.AVC.ExKinoRay.mkv
Формат : Matroska
Версия формата : Version 4
Размер файла : 3,14 Гбайт
Продолжительность : 1 ч. 38 м.
Общий поток : 4 549 Кбит/сек
Дата кодирования : UTC 2020-08-01 05:52:55
Программа кодирования : mkvmerge v45.0.0 ('Heaven in Pennies') 64-bit
Библиотека кодирования : libebml v1.3.10 + libmatroska v1.5.2

Видео
Идентификатор : 1
Формат : AVC
Формат/Информация : Advanced Video Codec
Профиль формата : High@L4.1
Настройки формата : CABAC / 12 Ref Frames
Параметр CABAC формата : Да
Параметр RefFrames формата : 12 кадров
Идентификатор кодека : V_MPEG4/ISO/AVC
Продолжительность : 1 ч. 38 м.
Битрейт : 2 119 Кбит/сек
Ширина : 1 024 пикселя
Высота : 552 пикселя
Соотношение сторон : 1,85:1
Режим частоты кадров : Постоянный
Частота кадров : 23,976 (24000/1001) кадра/сек
Цветовое пространство : YUV
Субдискретизация насыщенности : 4:2:0
Битовая глубина : 8 бит
Тип развёртки : Прогрессивная
Бит/(Пиксели*Кадры) : 0.156
Размер потока : 1,46 Гбайт (47%)
Библиотека кодирования : x264 core 160 r3000 33f9e14
Настройки программы : cabac=1 / ref=12 / deblock=1:-3:-3 / analyse=0x3:0x133 / me=umh / subme=10 / psy=1 / psy_rd=1.05:0.11 / mixed_ref=1 / me_range=32 / chroma_me=1 / trellis=2 / 8x8dct=1 / cqm=0 / deadzone=21,11 / fast_pskip=0 / chroma_qp_offset=-3 / threads=6 / lookahead_threads=1 / sliced_threads=0 / nr=0 / decimate=0 / interlaced=0 / bluray_compat=0 / constrained_intra=0 / bframes=12 / b_pyramid=2 / b_adapt=2 / b_bias=0 / direct=3 / weightb=1 / open_gop=0 / weightp=2 / keyint=240 / keyint_min=23 / scenecut=40 / intra_refresh=0 / rc=2pass / mbtree=0 / bitrate=2119 / ratetol=1.0 / qcomp=0.60 / qpmin=0 / qpmax=69 / qpstep=4 / cplxblur=20.0 / qblur=0.5 / ip_ratio=1.40 / pb_ratio=1.30 / aq=3:1.00
Default : Да
Forced : Нет
Цветовой диапазон : Limited
Основные цвета : BT.709
Характеристики трансфера : BT.709
Коэффициенты матрицы : BT.709

Аудио #1
Идентификатор : 2
Формат : AC-3
Формат/Информация : Audio Coding 3
Коммерческое название : Dolby Digital
Идентификатор кодека : A_AC3
Продолжительность : 1 ч. 38 м.
Вид битрейта : Постоянный
Битрейт : 448 Кбит/сек
Каналы : 6 каналов
Channel layout : L R C LFE Ls Rs
Частота : 48,0 КГц
Частота кадров : 31,250 кадров/сек (1536 SPF)
Метод сжатия : С потерями
Размер потока : 316 Мбайт (10%)
Заголовок : DUB
Язык : Russian
Service kind : Complete Main
Default : Да
Forced : Нет

Аудио #2
Идентификатор : 3
Формат : AC-3
Формат/Информация : Audio Coding 3
Коммерческое название : Dolby Digital
Идентификатор кодека : A_AC3
Продолжительность : 1 ч. 38 м.
Вид битрейта : Постоянный
Битрейт : 448 Кбит/сек
Каналы : 6 каналов
Channel layout : L R C LFE Ls Rs
Частота : 48,0 КГц
Частота кадров : 31,250 кадров/сек (1536 SPF)
Метод сжатия : С потерями
Размер потока : 316 Мбайт (10%)
Заголовок : MVO-R5
Язык : Russian
Service kind : Complete Main
Default : Нет
Forced : Нет

Аудио #3
Идентификатор : 4
Формат : AC-3
Формат/Информация : Audio Coding 3
Коммерческое название : Dolby Digital
Идентификатор кодека : A_AC3
Продолжительность : 1 ч. 38 м.
Вид битрейта : Постоянный
Битрейт : 192 Кбит/сек
Каналы : 2 канала
Channel layout : L R
Частота : 48,0 КГц
Частота кадров : 31,250 кадров/сек (1536 SPF)
Метод сжатия : С потерями
Размер потока : 135 Мбайт (4%)
Заголовок : MVO PTP
Язык : Russian
Service kind : Complete Main
Default : Нет
Forced : Нет

Аудио #4
Идентификатор : 5
Формат : AC-3
Формат/Информация : Audio Coding 3
Коммерческое название : Dolby Digital
Идентификатор кодека : A_AC3
Продолжительность : 1 ч. 38 м.
Вид битрейта : Постоянный
Битрейт : 448 Кбит/сек
Каналы : 6 каналов
Channel layout : L R C LFE Ls Rs
Частота : 48,0 КГц
Частота кадров : 31,250 кадров/сек (1536 SPF)
Метод сжатия : С потерями
Размер потока : 316 Мбайт (10%)
Заголовок : Сергей Визгунов
Язык : Russian
Service kind : Complete Main
Default : Нет
Forced : Нет

Аудио #5
Идентификатор : 6
Формат : AC-3
Формат/Информация : Audio Coding 3
Коммерческое название : Dolby Digital
Идентификатор кодека : A_AC3
Продолжительность : 1 ч. 38 м.
Вид битрейта : Постоянный
Битрейт : 448 Кбит/сек
Каналы : 6 каналов
Channel layout : L R C LFE Ls Rs
Частота : 48,0 КГц
Частота кадров : 31,250 кадров/сек (1536 SPF)
Метод сжатия : С потерями
Размер потока : 316 Мбайт (10%)
Заголовок : Андрей Гаврилов
Язык : Russian
Service kind : Complete Main
Default : Нет
Forced : Нет

Аудио #6
Идентификатор : 7
Формат : AC-3
Формат/Информация : Audio Coding 3
Коммерческое название : Dolby Digital
Идентификатор кодека : A_AC3
Продолжительность : 1 ч. 38 м.
Вид битрейта : Постоянный
Битрейт : 448 Кбит/сек
Каналы : 6 каналов
Channel layout : L R C LFE Ls Rs
Частота : 48,0 КГц
Частота кадров : 31,250 кадров/сек (1536 SPF)
Метод сжатия : С потерями
Размер потока : 316 Мбайт (10%)
Заголовок : original
Язык : English
Service kind : Complete Main
Default : Нет
Forced : Нет

Текст #1
Идентификатор : 8
Формат : UTF-8
Идентификатор кодека : S_TEXT/UTF8
Идентификатор кодека/Информация : UTF-8 Plain Text
Продолжительность : 1 ч. 33 м.
Битрейт : 88 бит/сек
Count of elements : 859
Размер потока : 60,5 Кбайт (0%)
Заголовок : русские
Язык : Russian
Default : Нет
Forced : Нет

Текст #2
Идентификатор : 9
Формат : UTF-8
Идентификатор кодека : S_TEXT/UTF8
Идентификатор кодека/Информация : UTF-8 Plain Text
Продолжительность : 1 ч. 36 м.
Битрейт : 64 бит/сек
Count of elements : 1242
Размер потока : 45,8 Кбайт (0%)
Заголовок : английские
Язык : English
Default : Нет
Forced : Нет

Меню
00:00:00.000 : en:Chapter 1
00:10:01.142 : en:Chapter 2
00:20:01.242 : en:Chapter 3
00:30:02.217 : en:Chapter 4
00:40:02.442 : en:Chapter 5
00:50:03.751 : en:Chapter 6
01:00:03.642 : en:Chapter 7
01:10:04.617 : en:Chapter 8
01:20:05.217 : en:Chapter 9
01:30:05.817 : en:Chapter 10
01:38:35.243 : en:Chapter 11


КУБКИ

СТАЖ

МЕДАЛИ
Награды:13

За отличные раздачи и качество (4) За подробное оформление раздач (2) Почётный форумчанин (1) За участие в конкурсах/играх (1) 2 место в конкурсах/играх (1)

Аватара пользователя
Russia
sany771
Опытный Релизёр-Корсар
  • Торрент
Для скачивания торрента необходимо зарегистрироваться или войти на трекер.

Вернуться в Зарубежное кино (1991-2000)



Рейтинг@Mail.ru