logo
Международный русскоязычный
торрент-трекер
Menu

Doublon
Поделиться с друзьями: 
Голосуй за Корсар и получи 100 дублонов
Рейтинг торрент трекеров - UpTracker.ru

Девушка с косой (2017, комедия, WEB-DL 720p) | iTunes

Сообщение kisa1980 » 11 янв 2018, 00:54

Оригинальное название: Девушка с косой
Год выпуска: 2017
Жанр: Комедия
Страна: Россия
Студия: Кинокомпания «100 фильм»
Продолжительность: 01:26:08
Язык: Русский | iTunes
Режиссер: Ольга Попова
В ролях: Фёдор Добронравов, Ирина Чериченко, Нина Дворжецкая, Виктор Добронравов, Александра Урсуляк, Сергей Медведев (III), Марк Богатырёв, Дарья Мингазетдинова, Олег Гаас, Полина Стремоусова, Полина Ауг, Сергей Фролов (II), Александр Обласов, Наталия Солдатова, Надежда Чернышёва, Даниил Пулях

О фильме: События фильма «Девушка с косой» развиваются в канун Нового года. Люди торопливо бегут по магазинам в поисках подарков для близких, делая последние закупки необходимых продуктов. Женщины впопыхах накрывают на стол, а мужчины уже начинают праздновать, не дожидаясь полуночи. Люди ждут волшебства и мечтают об исполнении заветных желаний в это сказочное время. Лишь раз в год каждый ждет радостного и светлого чуда, с улыбкой отвечая прохожим на поздравления с наступающим праздником. Эта пора заставляет народ забыть на несколько дней о накопившихся проблемах и оставить их на потом. В эту радостную пору по городу бродит женщина в темных одеждах, держащая в руках косу. Может это смерть в поисках очередной жертвы? Главные герои, встречающие ее на своем пути, шарахаются в сторону или торопятся перейти на другую сторону улицы. Но в то же время они задумываются о вариантах изменения хода судьбы. Для встретившихся с девушкой в плаще все заканчивается хорошо лишь в том случае, если они примут решение, которое раньше были не в силах сделать. Но многим тяжело поступиться своими принципами и сделать подобный шаг. Чем готов пожертвовать человек, если на кону стоит его собственная жизнь? Только внезапная встреча со смертью заставляет людей переоценить свое существование, изменив себя к лучшему.



Кодек: MPEG-4 AVC
Качество: WEB-DL 720p
Видео: 4085 Кбит/с, 960х720@1280x720, 25.000 FPS
Звук: АС3, 6 ch, 384 Кбит/с



General
Unique ID : 236374559146021150728751492860252931296 (0xB1D4158B2FB5A54A80064FB315BE44E0)
Complete name : D:\D3BuWka.C.K0Coy.2O17.O.WeB-DL.72Op.mkv
Format : Matroska
Format version : Version 2
File size : 2.69 GiB
Duration : 1 h 26 min
Overall bit rate : 4 471 kb/s
Encoded date : UTC 2018-01-09 21:42:20
Writing application : mkvmerge v8.3.0 ('Over the Horizon') 64bit
Writing library : libebml v1.3.1 + libmatroska v1.4.2

Video
ID : 1
Format : AVC
Format/Info : Advanced Video Codec
Format profile : Main@L3.1
Format settings : 2 Ref Frames
Format settings, CABAC : No
Format settings, ReFrames : 2 frames
Codec ID : V_MPEG4/ISO/AVC
Duration : 1 h 26 min
Bit rate : 4 085 kb/s
Width : 960 pixels
Height : 720 pixels
Display aspect ratio : 16:9
Frame rate mode : Constant
Frame rate : 25.000 FPS
Color space : YUV
Chroma subsampling : 4:2:0
Bit depth : 8 bits
Scan type : Progressive
Bits/(Pixel*Frame) : 0.236
Stream size : 2.46 GiB (91%)
Language : English
Default : Yes
Forced : No
Color range : Limited
Color primaries : BT.709
Transfer characteristics : BT.709
Matrix coefficients : BT.709

Audio
ID : 2
Format : AC-3
Format/Info : Audio Coding 3
Codec ID : A_AC3
Duration : 1 h 26 min
Bit rate mode : Constant
Bit rate : 384 kb/s
Channel(s) : 6 channels
Channel positions : Front: L C R, Side: L R, LFE
Sampling rate : 48.0 kHz
Frame rate : 31.250 FPS (1536 SPF)
Bit depth : 16 bits
Compression mode : Lossy
Stream size : 237 MiB (9%)
Language : Russian
Service kind : Complete Main
Default : Yes
Forced : No

Menu
00:00:00.000 : en:Глава 1
00:07:16.080 : en:Глава 2
00:14:42.200 : en:Глава 3
00:22:38.080 : en:Глава 4
00:29:48.280 : en:Глава 5
00:36:59.560 : en:Глава 6
00:44:45.120 : en:Глава 7
00:52:23.520 : en:Глава 8
00:59:55.240 : en:Глава 9
01:08:03.480 : en:Глава 10
01:15:32.000 : en:Глава 11
Аватара пользователя
kisa1980
Помощник Администратора-Корсар
 
 

Награды: 22
За помощь проекту (4) Лучший по количеству кубков (3) За отличные раздачи и качество (5) За подробное оформление раздач (2) За отличные комментарии (4) Верный Сид (2) За участие в конкурсах (1)
  • Торрент
Для скачивания торрента необходимо зарегистрироваться или войти на трекер.

Вернуться в Наше современное кино (HD Video)



Uptime по данным Ping-Admin.Ru - сервиса мониторинга доступности сайтов
Рейтинг@Mail.ru