logo
Международный русскоязычный
торрент-трекер
Menu

Doublon
Поделиться с друзьями: 
Голосуй за Корсар и получи 400 дублонов
Рейтинг торрент трекеров - UpTracker.ru

Девственницы-самоубийцы / The Virgin Suicides (1999, Драма, мелодрама, BDRip 720p) | 4K Remastered

Сообщение _denis_100 » 15 май 2018, 19:34

Название: Девственницы-самоубийцы
Оригинальное название: The Virgin Suicides
Год выпуска: 1999
Страна: США
Жанр: Драма, мелодрама
Продолжительность: 01:37:00
Перевод: Профессиональный многоголосый, Авторский одноголосый, Любительский одноголосый
Режиссер: София Коппола
В ролях: Джеймс Вудс, Кэтлин Тёрнер, Кирстен Данст, Джош Хартнетт, Майкл Паре, Скотт Гленн, Дэнни ДеВито, Эй Джей Кук, Ханна Р. Холл, Лесли Хейман, Хейден Кристенсен, Роберт Шварцман, Челсе Суэйн, Энтони ДеСимоне, Ли Каган, Джонатан Такер, Ной Шебиб, Джо Ронцетти, Крис Хейл, Джо Диникол, Суки Кайзер, Шерри Миллер, Джонатан Уитэйкер, Мишель Дюке

Описание: Экранизация одноимённого романа Джеффри Евгенидиса. В семье Лисбон пять дочерей-подростков. После того, как 13-летняя Сесилия кончает жизнь самоубийством, ее оставшиеся в живых сестры становятся объектом пристального внимания всех жителей городка, особенно соседских парней, устраивающих за девочками настоящую слежку. Желая оградить дочерей от окружающих, родители постепенно прекращают всяческое общение с внешним миром и запрещают дочерям выходить из дома.



Качество: BDRip 720p
Контейнер (Расширение): MKV
Видео: 1200x720, 8873 Кбит/сек, 23,976 кадр/сек, 0,428 Бит/[Пиксели*Кадры]
Аудио №1: русский / AC3 / 5.1 / 48 kHz / 640 kbps / |Профессиональный многоголосый, Екатеринбург АРТ|
Аудио №2: русский / AC3 / 5.1 / 48 kHz / 640 kbps / |Авторский одноголосый, Ю.Сербин|
Аудио №3: русский / AC3 / 5.1 / 48 kHz / 640 kbps / |Авторский одноголосый. Ю.Живов|
Аудио №4: русский / AC3 / 5.1 / 48 kHz / 448 kbps / |Любительский одноголосый, MrRose|
Аудио №5: английский / AC3 / 5.1 / 48 kHz / 640 kbps /
Навигация по главам(Чаптеры): есть

Автор рипа: Группа:


Format : Matroska
Format version : Version 2
File size : 8.05 GiB
Duration : 1 h 37 min
Overall bit rate : 11.9 Mb/s
Movie name : The Virgin Suicides.(1999).BDRip.720p.Remastered.[denis100]
Encoded date : UTC 2018-05-15 15:23:49
Writing application : mkvmerge v5.8.0 ('No Sleep / Pillow') built on Sep 2 2012 15:37:04
Writing library : libebml v1.2.3 + libmatroska v1.3.0

Video
ID : 1
Format : AVC
Format/Info : Advanced Video Codec
Format profile : High@L4.1
Format settings : CABAC / 9 Ref Frames
Format settings, CABAC : Yes
Format settings, ReFrames : 9 frames
Codec ID : V_MPEG4/ISO/AVC
Duration : 1 h 37 min
Bit rate : 8 873 kb/s
Width : 1 200 pixels
Height : 720 pixels
Display aspect ratio : 5:3
Frame rate mode : Constant
Frame rate : 23.976 (24000/1001) FPS
Color space : YUV
Chroma subsampling : 4:2:0
Bit depth : 8 bits
Scan type : Progressive
Bits/(Pixel*Frame) : 0.428
Stream size : 5.85 GiB (73%)
Title : The Virgin Suicides.(1999).BDRip.720p.Remastered.[denis100]
Writing library : x264 core 155 r2901 7d0ff22
Encoding settings : cabac=1 / ref=9 / deblock=1:-3:-3 / analyse=0x3:0x113 / me=umh / subme=11 / psy=1 / psy_rd=1.00:0.10 / mixed_ref=1 / me_range=32 / chroma_me=1 / trellis=2 / 8x8dct=1 / cqm=0 / deadzone=21,11 / fast_pskip=0 / chroma_qp_offset=-3 / threads=6 / lookahead_threads=1 / sliced_threads=0 / nr=0 / decimate=1 / interlaced=0 / bluray_compat=0 / constrained_intra=0 / bframes=12 / b_pyramid=2 / b_adapt=2 / b_bias=0 / direct=3 / weightb=0 / open_gop=0 / weightp=2 / keyint=240 / keyint_min=23 / scenecut=40 / intra_refresh=0 / rc=2pass / mbtree=0 / bitrate=8873 / ratetol=1.0 / qcomp=0.60 / qpmin=0 / qpmax=69 / qpstep=4 / cplxblur=20.0 / qblur=0.5 / ip_ratio=1.40 / pb_ratio=1.30 / aq=1:0.90
Language : English
Default : Yes
Forced : No

Audio #1
ID : 2
Format : AC-3
Format/Info : Audio Coding 3
Codec ID : A_AC3
Duration : 1 h 37 min
Bit rate mode : Constant
Bit rate : 640 kb/s
Channel(s) : 6 channels
Channel positions : Front: L C R, Side: L R, LFE
Sampling rate : 48.0 kHz
Frame rate : 31.250 FPS (1536 SPF)
Bit depth : 16 bits
Compression mode : Lossy
Stream size : 444 MiB (5%)
Title : MVO, Екатеринбург АРТ
Language : Russian
Service kind : Complete Main
Default : Yes
Forced : No

Audio #2
ID : 3
Format : AC-3
Format/Info : Audio Coding 3
Codec ID : A_AC3
Duration : 1 h 37 min
Bit rate mode : Constant
Bit rate : 640 kb/s
Channel(s) : 6 channels
Channel positions : Front: L C R, Side: L R, LFE
Sampling rate : 48.0 kHz
Frame rate : 31.250 FPS (1536 SPF)
Bit depth : 16 bits
Compression mode : Lossy
Stream size : 444 MiB (5%)
Title : AVO, Ю.Сербин
Language : Russian
Service kind : Complete Main
Default : No
Forced : No

Audio #3
ID : 4
Format : AC-3
Format/Info : Audio Coding 3
Codec ID : A_AC3
Duration : 1 h 37 min
Bit rate mode : Constant
Bit rate : 640 kb/s
Channel(s) : 6 channels
Channel positions : Front: L C R, Side: L R, LFE
Sampling rate : 48.0 kHz
Frame rate : 31.250 FPS (1536 SPF)
Bit depth : 16 bits
Compression mode : Lossy
Stream size : 444 MiB (5%)
Title : AVO, Ю.Живов
Language : Russian
Service kind : Complete Main
Default : No
Forced : No

Audio #4
ID : 5
Format : AC-3
Format/Info : Audio Coding 3
Codec ID : A_AC3
Duration : 1 h 37 min
Bit rate mode : Constant
Bit rate : 448 kb/s
Channel(s) : 6 channels
Channel positions : Front: L C R, Side: L R, LFE
Sampling rate : 48.0 kHz
Frame rate : 31.250 FPS (1536 SPF)
Bit depth : 16 bits
Compression mode : Lossy
Stream size : 311 MiB (4%)
Title : VO, MrRose
Language : Russian
Service kind : Complete Main
Default : No
Forced : No

Audio #5
ID : 6
Format : AC-3
Format/Info : Audio Coding 3
Codec ID : A_AC3
Duration : 1 h 37 min
Bit rate mode : Constant
Bit rate : 640 kb/s
Channel(s) : 6 channels
Channel positions : Front: L C R, Side: L R, LFE
Sampling rate : 48.0 kHz
Frame rate : 31.250 FPS (1536 SPF)
Bit depth : 16 bits
Compression mode : Lossy
Stream size : 444 MiB (5%)
Language : English
Service kind : Complete Main
Default : No
Forced : No

Text #1
ID : 7
Format : UTF-8
Codec ID : S_TEXT/UTF8
Codec ID/Info : UTF-8 Plain Text
Language : Russian
Default : No
Forced : No

Text #2
ID : 8
Format : UTF-8
Codec ID : S_TEXT/UTF8
Codec ID/Info : UTF-8 Plain Text
Language : English
Default : No
Forced : No

Menu
00:00:00.000 : en:Chapter 01
00:05:00.000 : en:Chapter 02
00:10:00.000 : en:Chapter 03
00:15:00.000 : en:Chapter 04
00:20:00.000 : en:Chapter 05
00:25:00.000 : en:Chapter 06
00:30:00.000 : en:Chapter 07
00:35:00.000 : en:Chapter 08
00:40:00.000 : en:Chapter 09
00:45:00.000 : en:Chapter 10
00:50:00.000 : en:Chapter 11
00:55:00.000 : en:Chapter 12
01:00:00.000 : en:Chapter 13
01:05:00.000 : en:Chapter 14
01:10:00.000 : en:Chapter 15
01:15:00.000 : en:Chapter 16
01:20:00.000 : en:Chapter 17
01:25:00.000 : en:Chapter 18
01:30:00.000 : en:Chapter 19
01:35:00.000 : en:Chapter 20
Аватара пользователя
_denis_100
Опытный Релизёр-Корсар
 
 

Награды: 20
Лучший по количеству кубков (1) За отличные раздачи и качество (13) За подробное оформление раздач (1) Верный Сид (1)
  • Торрент
Для скачивания торрента необходимо зарегистрироваться или войти на трекер.

Сообщение suliman » 22 май 2018, 21:35

Большое спасибо!
Аватара пользователя
suliman
Опытный Корсар
 
 

Награды: 1
Верный Сид (1)


Вернуться в Зарубежное кино (1991-2000 / HD Video)



Uptime по данным Ping-Admin.Ru - сервиса мониторинга доступности сайтов
Рейтинг@Mail.ru Голосуйте за наш сайт в каталоге Rubo.Ru
cron