logo
Международный русскоязычный
торрент-трекер
Menu
Doublon
Поделиться с друзьями: 
Голосуй за Корсар и получи 500 дублонов
Рейтинг торрент трекеров - UpTracker.ru

Девочка из переулка / The Little Girl Who Lives Down the Lane (1976, Ужасы, триллер, драма, детектив, BDRip 1080p)

Сообщение al1ksandr » 12 ноя 2019, 14:50

Название: Девочка из переулка
Оригинальное название: The Little Girl Who Lives Down the Lane
Год выхода: 1976
Жанр: Ужасы, триллер, драма, детектив
Режиссер: Николас Жесснер
В ролях: Джоди Фостер, Мартин Шин, Алексис Смит, Морт Шуман, Скотт Джейкоби, Дороти Дэвис, Клессон Гудхью, Юбер Ноэль, Жак Фамери, Мэри Мортер

О фильме: 13-летняя Ринн — смышлёная и самостоятельная для своего возраста девчушка. Она живёт в большом доме с отцом и ничего не боится. Вот только отца никто не видел, а для незваных гостей, вроде местного педофила Фрэнка Хэллета, у Ринн всегда припасены отговорки.



Страна: Швейцария, Франция, Канада
Студия: Dino De Laurentiis Productions, Paramount Pictures, Wildwood Enterprises
Продолжительность: 01:31:51
Перевод: Профессиональный (многоголосый закадровый, двухголосый закадровый), авторский (одноголосый)

Качество: BDRip 1080p
Видео: AVC/H.264, 1920x1042, (1.85:1), ~19 Mbps, 23.976 fps
Аудио 1: AC3, 1 ch, 224 Kbps - Русский (MVO - R5)
Аудио 2: AC3, 2 ch, 192 Kbps - Русский (DVO - НТВ+)
Аудио 3: AC3, 2 ch, 192 Kbps - Русский (AVO - Дама)
Аудио 4: AC3, 1 ch, 192 Kbps - Английский (Оригинал)
Аудио 5: AC3, 2 ch, 192 Kbps - Английский (Commentary by DVD Delirium's Nathaniel Thompson and Tim Greer)
Субтитры: Английские

General
Unique ID : 236923960483849629797888025320744791688 (0xB23DE51EF9300F544A014C09CCFFAE88)
Complete name : D:The.Little.Girl.Who.Lives.Down.the.Lane.1976.BDRip.1080p.NNMClub.mkv
Format : Matroska
Format version : Version 4
File size : 12.8 GiB
Duration : 1 h 31 min
Overall bit rate : 20.0 Mb/s
Movie name : The Little Girl Who Lives Down the Lane (1976) | NNMClub
Encoded date : UTC 2019-11-12 09:15:25
Writing application : mkvmerge v40.0.0 ('Old Town Road + Pony') 64-bit
Writing library : libebml v1.3.9 + libmatroska v1.5.2
Cover : Yes
Attachments : Cover.jpg / x264.log

Video
ID : 1
Format : AVC
Format/Info : Advanced Video Codec
Format profile : High@L4.1
Format settings : CABAC / 4 Ref Frames
Format settings, CABAC : Yes
Format settings, Reference : 4 frames
Codec ID : V_MPEG4/ISO/AVC
Duration : 1 h 31 min
Bit rate : 19.0 Mb/s
Width : 1 920 pixels
Height : 1 042 pixels
Display aspect ratio : 1.85:1
Frame rate mode : Constant
Frame rate : 23.976 (24000/1001) FPS
Color space : YUV
Chroma subsampling : 4:2:0
Bit depth : 8 bits
Scan type : Progressive
Bits/(Pixel*Frame) : 0.396
Stream size : 12.2 GiB (95%)
Title : The Little Girl Who Lives Down the Lane (1976)
Writing library : x264 core 158 r2988 7817004
Encoding settings : cabac=1 / ref=4 / deblock=1:-3:-3 / analyse=0x3:0x133 / me=umh / subme=11 / psy=1 / psy_rd=1.00:0.15 / mixed_ref=1 / me_range=48 / chroma_me=1 / trellis=2 / 8x8dct=1 / cqm=0 / deadzone=21,11 / fast_pskip=0 / chroma_qp_offset=-3 / threads=12 / lookahead_threads=3 / sliced_threads=0 / nr=0 / decimate=0 / interlaced=0 / bluray_compat=0 / constrained_intra=0 / bframes=12 / b_pyramid=2 / b_adapt=2 / b_bias=0 / direct=3 / weightb=1 / open_gop=0 / weightp=2 / keyint=240 / keyint_min=23 / scenecut=40 / intra_refresh=0 / rc_lookahead=60 / rc=2pass / mbtree=0 / bitrate=19000 / ratetol=1.0 / qcomp=0.60 / qpmin=0 / qpmax=69 / qpstep=4 / cplxblur=20.0 / qblur=0.5 / vbv_maxrate=50000 / vbv_bufsize=62500 / nal_hrd=none / filler=0 / ip_ratio=1.40 / pb_ratio=1.30 / aq=3:0.90
Language : English
Default : Yes
Forced : No

Audio #1
ID : 2
Format : AC-3
Format/Info : Audio Coding 3
Commercial name : Dolby Digital
Codec ID : A_AC3
Duration : 1 h 31 min
Bit rate mode : Constant
Bit rate : 224 kb/s
Channel(s) : 1 channel
Channel layout : C
Sampling rate : 48.0 kHz
Frame rate : 31.250 FPS (1536 SPF)
Compression mode : Lossy
Stream size : 147 MiB (1%)
Title : MVO | R5
Language : Russian
Service kind : Complete Main
Default : Yes
Forced : No

Audio #2
ID : 3
Format : AC-3
Format/Info : Audio Coding 3
Commercial name : Dolby Digital
Codec ID : A_AC3
Duration : 1 h 31 min
Bit rate mode : Constant
Bit rate : 192 kb/s
Channel(s) : 2 channels
Channel layout : L R
Sampling rate : 48.0 kHz
Frame rate : 31.250 FPS (1536 SPF)
Compression mode : Lossy
Stream size : 126 MiB (1%)
Title : DVO | НТВ+
Language : Russian
Service kind : Complete Main
Default : No
Forced : No

Audio #3
ID : 4
Format : AC-3
Format/Info : Audio Coding 3
Commercial name : Dolby Digital
Codec ID : A_AC3
Duration : 1 h 31 min
Bit rate mode : Constant
Bit rate : 192 kb/s
Channel(s) : 2 channels
Channel layout : L R
Sampling rate : 48.0 kHz
Frame rate : 31.250 FPS (1536 SPF)
Compression mode : Lossy
Stream size : 126 MiB (1%)
Title : AVO | Дама
Language : Russian
Service kind : Complete Main
Default : No
Forced : No

Audio #4
ID : 5
Format : AC-3
Format/Info : Audio Coding 3
Commercial name : Dolby Digital
Codec ID : A_AC3
Duration : 1 h 31 min
Bit rate mode : Constant
Bit rate : 192 kb/s
Channel(s) : 1 channel
Channel layout : C
Sampling rate : 48.0 kHz
Frame rate : 31.250 FPS (1536 SPF)
Compression mode : Lossy
Stream size : 126 MiB (1%)
Title : Original
Language : English
Service kind : Complete Main
Default : No
Forced : No

Audio #5
ID : 6
Format : AC-3
Format/Info : Audio Coding 3
Commercial name : Dolby Digital
Codec ID : A_AC3
Duration : 1 h 31 min
Bit rate mode : Constant
Bit rate : 192 kb/s
Channel(s) : 2 channels
Channel layout : L R
Sampling rate : 48.0 kHz
Frame rate : 31.250 FPS (1536 SPF)
Compression mode : Lossy
Stream size : 126 MiB (1%)
Title : Commentary by DVD Delirium's Nathaniel Thompson and Tim Greer
Language : English
Service kind : Complete Main
Default : No
Forced : No

Text
ID : 7
Format : UTF-8
Codec ID : S_TEXT/UTF8
Codec ID/Info : UTF-8 Plain Text
Duration : 1 h 27 min
Bit rate : 60 b/s
Count of elements : 1099
Stream size : 38.6 KiB (0%)
Title : Full
Language : English
Default : No
Forced : No

Menu
00:00:00.000 : en:00:00:00.000
00:09:17.974 : en:00:09:17.974
00:22:56.291 : en:00:22:56.291
00:33:58.369 : en:00:33:58.369
00:52:43.368 : en:00:52:43.368
00:59:11.130 : en:00:59:11.130
01:08:02.369 : en:01:08:02.369
01:19:50.744 : en:01:19:50.744

x264 [info]: profile High, level 4.1, 4:2:0, 8-bit
x264 [info]: frame I:663 Avg QP:17.75 size:233393
x264 [info]: frame P:21393 Avg QP:20.16 size:147026
x264 [info]: frame B:110070 Avg QP:22.24 size: 88919
x264 [info]: consecutive B-frames: 0.8% 0.4% 1.8% 7.9% 11.9% 36.4% 12.9% 5.9% 6.0% 7.1% 4.6% 3.2% 1.2%
x264 [info]: mb I I16..4: 3.0% 89.7% 7.2%
x264 [info]: mb P I16..4: 0.2% 47.6% 1.1% P16..4: 18.7% 24.7% 6.6% 0.5% 0.0% skip: 0.6%
x264 [info]: mb B I16..4: 0.1% 10.4% 0.1% B16..8: 41.8% 24.7% 4.6% direct:11.4% skip: 6.9% L0:44.7% L1:42.0% BI:13.3%
x264 [info]: 8x8 transform intra:97.7% inter:62.6%
x264 [info]: direct mvs spatial:99.5% temporal:0.5%
x264 [info]: coded y,uvDC,uvAC intra: 98.3% 67.2% 16.2% inter: 68.4% 46.6% 2.1%
x264 [info]: i16 v,h,dc,p: 36% 13% 12% 39%
x264 [info]: i8 v,h,dc,ddl,ddr,vr,hd,vl,hu: 10% 6% 10% 10% 14% 13% 12% 13% 12%
x264 [info]: i4 v,h,dc,ddl,ddr,vr,hd,vl,hu: 30% 5% 4% 7% 12% 13% 10% 10% 10%
x264 [info]: i8c dc,h,v,p: 21% 37% 27% 16%
x264 [info]: Weighted P-Frames: Y:7.3% UV:4.8%
x264 [info]: ref P L0: 54.1% 4.8% 27.8% 12.6% 0.7% 0.0%
x264 [info]: ref B L0: 79.3% 17.7% 2.9%
x264 [info]: ref B L1: 89.2% 10.8%
x264 [info]: kb/s:18999.07


Релиз от: NNMClub
КУБКИ

СТАЖ

МЕДАЛИ
Награды:70

За активную помощь проекту (3) Лучший по количеству кубков (15) За отличные раздачи и качество (6) За отличные комментарии (13) Почётный форумчанин (28) Верный Сид (1) За участие в конкурсах/играх (2)

Аватара пользователя
СССР
al1ksandr
Помощник Администратора-Корсар
  • Торрент
Для скачивания торрента необходимо зарегистрироваться или войти на трекер.

Сообщение kwazar312 » 12 ноя 2019, 17:45

Девочка, что живёт в конце улицы (англ. The Little Girl Who Lives Down the Lane) — фильм Николаса Жесснера по сценарию Лэрда Кёнига, адаптация одноимённого романа последнего, изданного двумя годами ранее.
Великолепная игра актёров. Особенно хочется заметить прекрасную игру главной героини. Джоди Фостер сыграла просто превосходно!Первый раз фильм смотрел в одноголосом переводе. Но уже сначала был заинтригован, что заметил,что он одноголосый (а я терпеть не могу одноголосые переводы) только на пятой минуте фильма. Очень интересно развивается сюжет и есть некоторые моменты (как например появление отца, или обстоятельство с чашкой Марио) где я несколько раз был собой обманут. Фильм буквально оборвался на конце, я ожидал банального «и жили они долго и счастливо», но этого обговорено не было. Остаётся лишь для своего успокоения дорисовать картину. (Книгу не читал, не знаю.Наверное,все-таки надо прочитать).
Весь мистицизм атмосферы, скажу по правде, на протяжении всего фильма я был п напряжении, боясь за девочку. Ей так и хочется сочувствовать, такая она смелая, умная, но одинокая и несчастная. Психологический триллер не иначе, крови в этом фильме слишком мало.
Уважаемый al1ksandr,спасибо за хороший фильм в таком формате.
:hi: :good: :bajan: :10 balov:
КУБКИ

СТАЖ

МЕДАЛИ
Награды:133

За активную помощь проекту (13) Лучший по количеству кубков (40) За отличные раздачи и качество (3) За отличные комментарии (22) Почётный форумчанин (4) Верный Сид (45) За участие в конкурсах/играх (6)

Аватара пользователя
kwazar312
Заслуженный Корсар-Вип


Вернуться в Классика зарубежного кино (фильмы до 1980 года / HD Video)



Uptime по данным Ping-Admin.Ru - сервиса мониторинга доступности сайтов
Рейтинг@Mail.ru