logo
Международный русскоязычный
торрент-трекер
Menu

Doublon
Поделиться с друзьями: 
Голосуй за Корсар и получи 150 дублонов
Рейтинг торрент трекеров - UpTracker.ru

Детективное агентство "Лунный свет" / Moonlighting / Сезон: 1-2 / Серии: 1-24(24) (1985, Комедия/Драма/Детектив, DVDRip-AVC)

Сообщение Korsar » 01 дек 2016, 23:25

Детективное агентство "Лунный свет" / Moonlighting

Год выпуска: 1985
Страна: США
Жанр: Комедия/Драма/Детектив
Продолжительность: ~45 мин
Перевод: Профессиональный многоголосый закадровый ОРТ
Русские субтитры: нет
Субтитры: отсутствуют

Режиссёр: Роберт Батлер

В ролях: Брюс Уиллис, Сибилл Шеперд, Эллис Бисли, Кертис Армстронг и др

Описание: Детективное агентство «Лунный свет» (англ. Moonlighting) — американский детективный сериал с элементами комедии, транслировавшийся на телеканале ABC с 1985 по 1989 год. Всего было снято 66 эпизодов. В главных ролях снялись Брюс Уиллис и Сибилл Шепард. В России демонстрировался на Первом канале каждое воскресенье с декабря 1995 по 1996 год в 11 часов вечера.
Основное действие происходит в Лос-Анджелесе, в детективном агентстве «Лунный свет», расположенном на 20-ом этаже в офисе номер 2016. Топ-модель Мэдди Хэйз, известная по рекламе шампуня «Лунный свет», была обманута управляющим, который сбежал со всеми её деньгами в Южную Америку. Всё, что у нее осталось — это ее дом, красота и интеллект, а также несколько убыточных фирмочек (магазинчик «Краски для ногтей», студия фамильных портретов, магазин спортивных принадлежностей и т. п.). Остро нуждаясь в деньгах, она решает закрыть эти свои фирмы. В этот список входит также детективное агентство «Городские ангелы», однако его управляющий Дэвид Эдисон убеждает владелицу не закрывать агентство, а взяться самой управлять им. Так Мэдди Хэйз оказывается вовлечена в работу детектива. Слежка за неверными мужьями, поиск пропавших людей, разоблачение убийц — все, что угодно, лишь бы заработать на жизнь. Агентство «Городские ангелы» становится агентством «Лунный свет».

Сэмпл: http://multi-up.com/746136
Качество: DVDRip-AVC
Формат: MKV
Видео кодек: H.264
Аудио кодек: AC3
Видео: h264 656x480 23,976 fps 1355 Kbps 0.18 bit/pixel
Аудио: Русский AC3 48.0 KHz, 2.0 ch 192 kbps
Аудио 2: English AC3 48.0 KHz, 2.0 ch 192 kbps
General
Unique ID : 202630186956585221453503380062856769504 (0x9871278B52A2AE9BB562451E36AB6FE0)
Complete name : H:\трекер\Moonlighting\Сезон 1\Moonlighting.s01e01.Pilot.mkv
Format : Matroska
Format version : Version 2
File size : 1.13 GiB
Duration : 1h 33mn
Overall bit rate : 1 741 Kbps
Encoded date : UTC 2012-08-13 17:06:23
Writing application : mkvmerge v5.7.0 ('The Whirlwind') built on Jul 8 2012 20:08:51
Writing library : libebml v1.2.3 + libmatroska v1.3.0

Video
ID : 1
Format : AVC
Format/Info : Advanced Video Codec
Format profile : High@L3.1
Format settings, CABAC : Yes
Format settings, ReFrames : 8 frames
Codec ID : V_MPEG4/ISO/AVC
Duration : 1h 33mn
Bit rate : 1 355 Kbps
Width : 656 pixels
Height : 480 pixels
Display aspect ratio : 4:3
Frame rate : 23.976 fps
Color space : YUV
Chroma subsampling : 4:2:0
Bit depth : 8 bits
Scan type : Progressive
Bits/(Pixel*Frame) : 0.179
Stream size : 882 MiB (76%)
Writing library : x264 core 125 r2208 d9d2288
Encoding settings : cabac=1 / ref=8 / deblock=1:-1:-1 / analyse=0x3:0x133 / me=umh / subme=11 / psy=1 / psy_rd=1.00:0.15 / mixed_ref=1 / me_range=32 / chroma_me=1 / trellis=2 / 8x8dct=1 / cqm=0 / deadzone=21,11 / fast_pskip=0 / chroma_qp_offset=-3 / threads=6 / lookahead_threads=1 / sliced_threads=0 / nr=0 / decimate=1 / interlaced=0 / bluray_compat=0 / constrained_intra=0 / bframes=10 / b_pyramid=2 / b_adapt=2 / b_bias=0 / direct=3 / weightb=1 / open_gop=0 / weightp=2 / keyint=240 / keyint_min=23 / scenecut=40 / intra_refresh=0 / rc=2pass / mbtree=0 / bitrate=1355 / ratetol=1.0 / qcomp=0.60 / qpmin=0 / qpmax=69 / qpstep=4 / cplxblur=20.0 / qblur=0.5 / ip_ratio=1.40 / pb_ratio=1.30 / aq=1:1.00
Language : English
Default : Yes
Forced : No

Audio #1
ID : 2
Format : AC-3
Format/Info : Audio Coding 3
Mode extension : CM (complete main)
Format settings, Endianness : Big
Codec ID : A_AC3
Duration : 1h 33mn
Bit rate mode : Constant
Bit rate : 192 Kbps
Channel(s) : 2 channels
Channel positions : Front: L R
Sampling rate : 48.0 KHz
Bit depth : 16 bits
Compression mode : Lossy
Stream size : 128 MiB (11%)
Language : Russian
Default : Yes
Forced : No

Audio #2
ID : 3
Format : AC-3
Format/Info : Audio Coding 3
Mode extension : CM (complete main)
Format settings, Endianness : Big
Codec ID : A_AC3
Duration : 1h 33mn
Bit rate mode : Constant
Bit rate : 192 Kbps
Channel(s) : 2 channels
Channel positions : Front: L R
Sampling rate : 48.0 KHz
Bit depth : 16 bits
Compression mode : Lossy
Stream size : 128 MiB (11%)
Language : English
Default : No
Forced : No

Автор: B@ZILI0

Боцман
Аватара пользователя
Korsar
Помощник Администратора-Корсар
 
 

Награды: 28
За помощь проекту (1) За отличные раздачи и качество (12) За подробное оформление раздач (1) За отличные комментарии (1) Верный Сид (9) За участие в конкурсах (2)
  • Торрент
Для скачивания торрента необходимо зарегистрироваться или войти на трекер.

Вернуться в Зарубежные сериалы



Uptime по данным Ping-Admin.Ru - сервиса мониторинга доступности сайтов
Рейтинг@Mail.ru